<?xml version="1.0" encoding="UTF-8"?>
<svg xmlns="http://www.w3.org/2000/svg" xmlns:xlink="http://www.w3.org/1999/xlink" version="1.2" >
<font id="MontblancType-Italic">
<font-face  font-family="Montblanc Type" units-per-em="2048" ascent="1581" descent="-467" font-style="italic" font-weight="400" font-stretch="normal" slope="-10" cap-height="768" x-height="537" underline-position="-195" underline-thickness="102" />
<missing-glyph  horiz-adv-x="1176" d="M109 1389 L1061 1389 L1061 0 L109 0 L109 1389 Z M887 1282 L283 1282 L584 799 L887 1282 Z M946 1167 L649 694 L946 221 L946 1167 Z M887 106 L584 590 L283 106 L887 106 Z M520 694 L221 1167 L221 221 L520 694 Z " />
<glyph glyph-name=".null" horiz-adv-x="2" d="" />
<glyph glyph-name="nonmarkingreturn" unicode="&#xd;" horiz-adv-x="700" d="" />
<glyph glyph-name="space" unicode="&#x20;" horiz-adv-x="485" d="" />
<glyph glyph-name="A" unicode="A" horiz-adv-x="1407" d="M965 569 L907 780 Q876 895 854.5 976.5 Q833 1058 817 1120 L813 1120 Q776 1058 726 977 Q676 896 608 786 L473 569 L965 569 Z M1010 399 L369 399 L121 0 L-90 0 L883 1534 L887 1534 L1319 0 L1118 0 L1010 399 Z " />
<glyph glyph-name="B" unicode="B" horiz-adv-x="1251" d="M338 1483 L717 1483 Q846 1483 933.5 1461.5 Q1021 1440 1081 1399 Q1146 1354 1182.5 1286 Q1219 1218 1219 1130 Q1219 1067 1199 1009 Q1179 951 1141.5 902.5 Q1104 854 1049.5 816.5 Q995 779 926 756 L926 754 Q972 736 1011 708 Q1050 680 1078 642 Q1106 604 1121.5 556.5 Q1137 509 1137 453 Q1137 406 1126 359.5 Q1115 313 1094 270 Q1073 227 1042.5 188.5 Q1012 150 973 119 Q936 90 894.5 68 Q853 46 803 31 Q753 16 693 8 Q633 0 559 0 L76 0 L338 1483 Z M711 834 Q767 834 823 847.5 Q879 861 923.5 891 Q968 921 996 969 Q1024 1017 1024 1085 Q1024 1193 942 1251 Q904 1279 846 1293 Q788 1307 696 1307 L502 1307 L418 834 L711 834 Z M563 176 Q668 176 740 196 Q812 216 860 258 Q898 292 920 338.5 Q942 385 942 440 Q942 494 920 536.5 Q898 579 857 608 Q816 637 758 652.5 Q700 668 627 668 L389 668 L301 176 L563 176 Z " />
<glyph glyph-name="C" unicode="C" horiz-adv-x="1362" d="M1184 35 Q1105 7 1017 -8 Q929 -23 838 -23 Q682 -23 551.5 20.5 Q421 64 326.5 147 Q232 230 179.5 351 Q127 472 127 627 Q127 710 143 795.5 Q159 881 191 964 Q223 1047 272 1124.5 Q321 1202 387 1268 Q506 1386 657 1445.5 Q808 1505 975 1505 Q1100 1505 1209.5 1475 Q1319 1445 1401 1397 L1366 1200 Q1279 1259 1178.5 1292 Q1078 1325 967 1325 Q834 1325 721 1279 Q608 1233 524 1149 Q475 1101 437 1041.5 Q399 982 373.5 916.5 Q348 851 335 781.5 Q322 712 322 645 Q322 531 358.5 441 Q395 351 463.5 288 Q532 225 630 191.5 Q728 158 852 158 Q951 158 1043.5 179.5 Q1136 201 1221 246 L1184 35 Z " />
<glyph glyph-name="D" unicode="D" horiz-adv-x="1489" d="M338 1483 L700 1483 Q884 1483 1018 1434.5 Q1152 1386 1245 1303 Q1345 1213 1398.5 1090.5 Q1452 968 1452 819 Q1452 745 1438 668.5 Q1424 592 1395 517.5 Q1366 443 1321.5 372.5 Q1277 302 1217 242 Q1101 128 936.5 64 Q772 0 555 0 L76 0 L338 1483 Z M569 176 Q662 176 740 190.5 Q818 205 882.5 231.5 Q947 258 998.5 294 Q1050 330 1090 373 Q1171 461 1214 575.5 Q1257 690 1257 805 Q1257 856 1248 905.5 Q1239 955 1221 1001 Q1203 1047 1175 1088.5 Q1147 1130 1110 1165 Q1075 1197 1031 1223.5 Q987 1250 933 1268.5 Q879 1287 815 1297 Q751 1307 676 1307 L502 1307 L301 176 L569 176 Z " />
<glyph glyph-name="E" unicode="E" horiz-adv-x="1124" d="M338 1483 L1184 1483 L1153 1307 L502 1307 L420 848 L985 848 L954 678 L389 678 L301 176 L971 176 L940 0 L76 0 L338 1483 Z " />
<glyph glyph-name="F" unicode="F" horiz-adv-x="1130" d="M338 1483 L1196 1483 L1165 1307 L502 1307 L416 819 L1001 819 L971 649 L385 649 L270 0 L76 0 L338 1483 Z " />
<glyph glyph-name="G" unicode="G" horiz-adv-x="1485" d="M1266 78 Q1178 34 1060.5 5.5 Q943 -23 813 -23 Q663 -23 536.5 21 Q410 65 318.5 148.5 Q227 232 176 353 Q125 474 125 629 Q125 716 142 805 Q159 894 193.5 978.5 Q228 1063 280 1141 Q332 1219 401 1284 Q517 1394 662.5 1449.5 Q808 1505 969 1505 Q1036 1505 1102 1495.5 Q1168 1486 1229.5 1468.5 Q1291 1451 1346 1426 Q1401 1401 1446 1370 L1411 1176 Q1366 1208 1313.5 1235.5 Q1261 1263 1204 1283 Q1147 1303 1086.5 1314 Q1026 1325 963 1325 Q897 1325 836.5 1313 Q776 1301 722 1279 Q668 1257 621 1226.5 Q574 1196 535 1159 Q482 1110 442 1050.5 Q402 991 374.5 925.5 Q347 860 333 790 Q319 720 319 649 Q319 539 353 448 Q387 357 451.5 291.5 Q516 226 610.5 190 Q705 154 825 154 Q906 154 974.5 169.5 Q1043 185 1094 207 L1157 569 L831 569 L862 739 L1382 739 L1266 78 Z " />
<glyph glyph-name="H" unicode="H" horiz-adv-x="1505" d="M338 1483 L532 1483 L420 850 L1206 850 L1319 1483 L1513 1483 L1251 0 L1057 0 L1176 674 L389 674 L270 0 L76 0 L338 1483 Z " />
<glyph glyph-name="I" unicode="I" horiz-adv-x="524" d="M338 1483 L532 1483 L270 0 L76 0 L338 1483 Z " />
<glyph glyph-name="J" unicode="J" horiz-adv-x="793" d="M606 1483 L801 1483 L608 387 Q590 280 561.5 214.5 Q533 149 496 104 Q440 38 364.5 7.5 Q289 -23 201 -23 Q136 -23 75.5 -8 Q15 7 -35 29 L-2 217 Q46 192 99 175 Q152 158 203 158 Q259 158 295.5 176.5 Q332 195 356 228.5 Q380 262 394 309 Q408 356 418 412 L606 1483 Z " />
<glyph glyph-name="K" unicode="K" horiz-adv-x="1282" d="M338 1483 L532 1483 L410 791 L414 788 L1165 1483 L1413 1483 L625 760 L1184 0 L950 0 L406 745 L401 745 L270 0 L76 0 L338 1483 Z " />
<glyph glyph-name="L" unicode="L" horiz-adv-x="1108" d="M338 1483 L532 1483 L303 176 L1001 176 L971 0 L76 0 L338 1483 Z " />
<glyph glyph-name="M" unicode="M" horiz-adv-x="1827" d="M346 1532 L350 1534 L932 662 L1839 1534 L1843 1532 L1573 0 L1378 0 L1509 741 Q1522 813 1535 885 Q1548 957 1561 1020 L1556 1022 Q1507 972 1450.5 917 Q1394 862 1341 811 L893 381 L610 805 Q570 865 529.5 927 Q489 989 451 1049 L446 1047 Q434 969 421.5 894.5 Q409 820 395 741 L264 0 L76 0 L346 1532 Z " />
<glyph glyph-name="N" unicode="N" horiz-adv-x="1561" d="M76 0 L346 1532 L350 1534 L977 680 Q1031 606 1083 534 Q1135 462 1186 391 L1190 393 Q1202 469 1215.5 548.5 Q1229 628 1243 707 L1380 1483 L1569 1483 L1298 -49 L1294 -51 L668 803 Q614 877 562 948.5 Q510 1020 459 1092 L455 1090 Q442 1014 428.5 934.5 Q415 855 401 776 L264 0 L76 0 Z " />
<glyph glyph-name="O" unicode="O" horiz-adv-x="1634" d="M127 664 Q127 740 140 815.5 Q153 891 178.5 964 Q204 1037 241.5 1104.5 Q279 1172 328 1231 Q379 1293 442.5 1343.5 Q506 1394 579.5 1430 Q653 1466 736.5 1485.5 Q820 1505 911 1505 Q1053 1505 1177 1457 Q1301 1409 1392.5 1319.5 Q1484 1230 1536.5 1103 Q1589 976 1589 819 Q1589 743 1576 667 Q1563 591 1538 518.5 Q1513 446 1475.5 378.5 Q1438 311 1389 252 Q1337 190 1273.5 139 Q1210 88 1136.5 52 Q1063 16 979.5 -3.5 Q896 -23 805 -23 Q663 -23 539 25.5 Q415 74 323.5 163 Q232 252 179.5 379 Q127 506 127 664 Z M322 678 Q322 569 356.5 474 Q391 379 454.5 309 Q518 239 609 198.5 Q700 158 813 158 Q943 158 1051 210.5 Q1159 263 1239 362 Q1311 452 1353 567.5 Q1395 683 1395 805 Q1395 914 1360.5 1009 Q1326 1104 1262 1174 Q1198 1244 1107 1284.5 Q1016 1325 903 1325 Q773 1325 665.5 1272 Q558 1219 477 1120 Q405 1030 363.5 915 Q322 800 322 678 Z " />
<glyph glyph-name="P" unicode="P" horiz-adv-x="1245" d="M338 1483 L719 1483 Q862 1483 964.5 1454 Q1067 1425 1139 1360 Q1199 1307 1233.5 1233.5 Q1268 1160 1268 1069 Q1268 1024 1258.5 977.5 Q1249 931 1230 886 Q1211 841 1181.5 799 Q1152 757 1112 721 Q1074 686 1027.5 659 Q981 632 924.5 614 Q868 596 800 587 Q732 578 651 578 L373 578 L270 0 L76 0 L338 1483 Z M676 748 Q792 748 865 771 Q938 794 985 842 Q1025 880 1049 935 Q1073 990 1073 1053 Q1073 1165 997 1227 Q952 1267 884.5 1287 Q817 1307 715 1307 L502 1307 L403 748 L676 748 Z " />
<glyph glyph-name="Q" unicode="Q" horiz-adv-x="1634" d="M1239 362 Q1311 452 1353 567.5 Q1395 683 1395 805 Q1395 914 1360.5 1009 Q1326 1104 1262 1174 Q1198 1244 1107 1284.5 Q1016 1325 903 1325 Q773 1325 665.5 1272 Q558 1219 477 1120 Q405 1030 363.5 915 Q322 800 322 678 Q322 569 356.5 474 Q391 379 454.5 309 Q518 239 609 198.5 Q700 158 813 158 Q943 158 1051 210.5 Q1159 263 1239 362 Z M872 -20 Q855 -22 838.5 -22.5 Q822 -23 805 -23 Q663 -23 539 25.5 Q415 74 323.5 163 Q232 252 179.5 379 Q127 506 127 664 Q127 740 140 815.5 Q153 891 178.5 964 Q204 1037 241.5 1104.5 Q279 1172 328 1231 Q379 1293 442.5 1343.5 Q506 1394 579.5 1430 Q653 1466 736.5 1485.5 Q820 1505 911 1505 Q1053 1505 1177 1457 Q1301 1409 1392.5 1319.5 Q1484 1230 1536.5 1103 Q1589 976 1589 819 Q1589 743 1576 667 Q1563 591 1538 518.5 Q1513 446 1475.5 378.5 Q1438 311 1389 252 Q1324 173 1242 114.5 Q1160 56 1061 20 L1227 -383 L1012 -383 L872 -20 Z " />
<glyph glyph-name="R" unicode="R" horiz-adv-x="1272" d="M647 623 L381 623 L270 0 L76 0 L338 1483 L733 1483 Q866 1483 964 1455.5 Q1062 1428 1130 1366 Q1186 1316 1218.5 1244 Q1251 1172 1251 1085 Q1251 1043 1242.5 999.5 Q1234 956 1216.5 913 Q1199 870 1172 830 Q1145 790 1108 756 Q1062 712 996.5 681 Q931 650 846 635 L1149 0 L934 0 L647 623 Z M700 788 Q788 788 857 809 Q926 830 977 877 Q1014 911 1035.5 959 Q1057 1007 1057 1067 Q1057 1177 977 1239 Q935 1273 872.5 1290 Q810 1307 713 1307 L502 1307 L410 788 L700 788 Z " />
<glyph glyph-name="S" unicode="S" horiz-adv-x="1124" d="M102 346 Q147 304 199.5 269 Q252 234 309 209 Q366 184 425 170 Q484 156 541 156 Q604 156 661 173.5 Q718 191 756 223 Q796 257 819 307 Q842 357 842 414 Q842 468 820 506.5 Q798 545 759 575 Q720 605 667 629.5 Q614 654 553 680 Q484 709 422 741 Q360 773 313 815.5 Q266 858 238.5 916 Q211 974 211 1055 Q211 1148 248 1234 Q285 1320 362 1386 Q431 1443 517 1474 Q603 1505 707 1505 Q816 1505 925.5 1471 Q1035 1437 1124 1372 L1087 1167 Q1044 1203 995.5 1232.5 Q947 1262 896 1283 Q845 1304 792 1315.5 Q739 1327 688 1327 Q632 1327 582 1312 Q532 1297 494 1266 Q450 1232 428 1184.5 Q406 1137 406 1081 Q406 1031 425.5 996 Q445 961 482 933 Q519 905 572 880 Q625 855 692 827 Q765 796 828 762.5 Q891 729 937 684.5 Q983 640 1009.5 581.5 Q1036 523 1036 442 Q1036 336 991.5 242.5 Q947 149 866 84 Q797 30 710 3.5 Q623 -23 524 -23 Q462 -23 399.5 -12 Q337 -1 278 19 Q219 39 165 68 Q111 97 66 133 L102 346 Z " />
<glyph glyph-name="T" unicode="T" horiz-adv-x="1319" d="M705 1307 L217 1307 L248 1483 L1417 1483 L1386 1307 L899 1307 L670 0 L475 0 L705 1307 Z " />
<glyph glyph-name="U" unicode="U" horiz-adv-x="1470" d="M1356 676 Q1340 584 1321.5 512 Q1303 440 1281.5 382.5 Q1260 325 1234.5 280 Q1209 235 1178 197 Q1096 95 972 36 Q848 -23 682 -23 Q558 -23 461 11 Q364 45 296.5 108 Q229 171 193.5 261.5 Q158 352 158 465 Q158 511 164 569 Q170 627 184 711 L319 1483 L514 1483 L379 711 Q366 643 361 587.5 Q356 532 356 494 Q356 416 376 353.5 Q396 291 438 247.5 Q480 204 544 181 Q608 158 696 158 Q815 158 898.5 198 Q982 238 1036 309 Q1084 370 1115 461.5 Q1146 553 1169 688 L1309 1483 L1497 1483 L1356 676 Z " />
<glyph glyph-name="V" unicode="V" horiz-adv-x="1343" d="M1296 1483 L1509 1483 L573 -51 L569 -51 L180 1483 L383 1483 L567 715 Q587 630 606.5 547 Q626 464 643 387 L647 387 Q695 469 745.5 554.5 Q796 640 844 721 L1296 1483 Z " />
<glyph glyph-name="W" unicode="W" horiz-adv-x="2077" d="M526 778 Q543 693 559.5 607.5 Q576 522 592 440 L596 440 Q618 480 642.5 524 Q667 568 692.5 612.5 Q718 657 743 701 Q768 745 791 786 L1214 1534 L1219 1534 L1378 784 Q1397 698 1415 611 Q1433 524 1450 440 L1454 440 Q1498 523 1541 601.5 Q1584 680 1634 772 L2025 1483 L2238 1483 L1382 -51 L1378 -51 L1202 735 Q1185 813 1168.5 888.5 Q1152 964 1137 1038 L1133 1038 Q1092 967 1048.5 889.5 Q1005 812 963 739 L506 -51 L502 -51 L184 1483 L387 1483 L526 778 Z " />
<glyph glyph-name="X" unicode="X" horiz-adv-x="1329" d="M592 786 L248 1483 L463 1483 L584 1233 Q621 1155 657 1079 Q693 1003 727 926 L731 926 Q791 1001 853.5 1076 Q916 1151 979 1227 L1194 1483 L1427 1483 L836 786 L1231 0 L1012 0 L856 315 Q816 397 776.5 479.5 Q737 562 698 645 L694 645 Q632 568 567 489 Q502 410 436 332 L158 0 L-76 0 L592 786 Z " />
<glyph glyph-name="Y" unicode="Y" horiz-adv-x="1323" d="M596 662 L180 1483 L397 1483 L578 1118 Q619 1034 652.5 965 Q686 896 717 831 L721 831 Q774 897 833.5 969 Q893 1041 958 1118 L1264 1483 L1489 1483 L791 664 L674 0 L479 0 L596 662 Z " />
<glyph glyph-name="Z" unicode="Z" horiz-adv-x="1208" d="M-57 4 L965 1303 L963 1307 L221 1307 L252 1483 L1337 1483 L1339 1479 L317 180 L319 176 L1098 176 L1067 0 L-55 0 L-57 4 Z " />
<glyph glyph-name="Agrave" unicode="&#xc0;" horiz-adv-x="1407" d="M965 569 L907 780 Q876 895 854.5 976.5 Q833 1058 817 1120 L813 1120 Q776 1058 726 977 Q676 896 608 786 L473 569 L965 569 Z M1010 399 L369 399 L121 0 L-90 0 L883 1534 L887 1534 L1319 0 L1118 0 L1010 399 Z M718 1934 L922 1934 L1021 1598 L884 1598 L718 1934 Z " />
<glyph glyph-name="Aacute" unicode="&#xc1;" horiz-adv-x="1407" d="M965 569 L907 780 Q876 895 854.5 976.5 Q833 1058 817 1120 L813 1120 Q776 1058 726 977 Q676 896 608 786 L473 569 L965 569 Z M1010 399 L369 399 L121 0 L-90 0 L883 1534 L887 1534 L1319 0 L1118 0 L1010 399 Z M894 1598 L752 1598 L970 1934 L1178 1934 L894 1598 Z " />
<glyph glyph-name="Acircumflex" unicode="&#xc2;" horiz-adv-x="1407" d="M965 569 L907 780 Q876 895 854.5 976.5 Q833 1058 817 1120 L813 1120 Q776 1058 726 977 Q676 896 608 786 L473 569 L965 569 Z M1010 399 L369 399 L121 0 L-90 0 L883 1534 L887 1534 L1319 0 L1118 0 L1010 399 Z M558 1606 L943 1954 L951 1954 L1217 1606 L1047 1606 L922 1756 L748 1606 L558 1606 Z " />
<glyph glyph-name="Atilde" unicode="&#xc3;" horiz-adv-x="1407" d="M965 569 L907 780 Q876 895 854.5 976.5 Q833 1058 817 1120 L813 1120 Q776 1058 726 977 Q676 896 608 786 L473 569 L965 569 Z M1010 399 L369 399 L121 0 L-90 0 L883 1534 L887 1534 L1319 0 L1118 0 L1010 399 Z M1221 1721 Q1194 1690 1150.5 1667.5 Q1107 1645 1051 1645 Q1011 1645 972.5 1660 Q934 1675 888 1698 Q847 1718 815 1729.5 Q783 1741 748 1741 Q721 1741 697 1732.5 Q673 1724 652.5 1709.5 Q632 1695 615 1677 Q598 1659 585 1641 L580 1643 L611 1817 Q639 1848 682 1870.5 Q725 1893 781 1893 Q821 1893 860 1878 Q899 1863 945 1840 Q985 1820 1017 1808.5 Q1049 1797 1084 1797 Q1112 1797 1136 1805.5 Q1160 1814 1180 1828.5 Q1200 1843 1217 1861 Q1234 1879 1248 1897 L1252 1895 L1221 1721 Z " />
<glyph glyph-name="Adieresis" unicode="&#xc4;" horiz-adv-x="1407" d="M965 569 L907 780 Q876 895 854.5 976.5 Q833 1058 817 1120 L813 1120 Q776 1058 726 977 Q676 896 608 786 L473 569 L965 569 Z M1010 399 L369 399 L121 0 L-90 0 L883 1534 L887 1534 L1319 0 L1118 0 L1010 399 Z M1109 1653 Q1086 1653 1066 1661.5 Q1046 1670 1031.5 1684 Q1017 1698 1008.5 1717.5 Q1000 1737 1000 1760 Q1000 1785 1010 1807 Q1020 1829 1036.5 1845 Q1053 1861 1075.5 1870 Q1098 1879 1123 1879 Q1146 1879 1166 1870.5 Q1186 1862 1200.5 1847.5 Q1215 1833 1223.5 1813.5 Q1232 1794 1232 1772 Q1232 1747 1222 1725 Q1212 1703 1195.5 1687 Q1179 1671 1156.5 1662 Q1134 1653 1109 1653 Z M712 1653 Q689 1653 669 1661.5 Q649 1670 634.5 1684 Q620 1698 611.5 1717.5 Q603 1737 603 1760 Q603 1785 612.5 1807 Q622 1829 639 1845 Q656 1861 678 1870 Q700 1879 726 1879 Q749 1879 768.5 1870.5 Q788 1862 802.5 1847.5 Q817 1833 825.5 1813.5 Q834 1794 834 1772 Q834 1747 824.5 1725 Q815 1703 798.5 1687 Q782 1671 759.5 1662 Q737 1653 712 1653 Z " />
<glyph glyph-name="Amacron" unicode="&#x100;" horiz-adv-x="1407" d="M965 569 L907 780 Q876 895 854.5 976.5 Q833 1058 817 1120 L813 1120 Q776 1058 726 977 Q676 896 608 786 L473 569 L965 569 Z M1010 399 L369 399 L121 0 L-90 0 L883 1534 L887 1534 L1319 0 L1118 0 L1010 399 Z M648 1836 L1207 1836 L1183 1696 L623 1696 L648 1836 Z " />
<glyph glyph-name="Abreve" unicode="&#x102;" horiz-adv-x="1407" d="M965 569 L907 780 Q876 895 854.5 976.5 Q833 1058 817 1120 L813 1120 Q776 1058 726 977 Q676 896 608 786 L473 569 L965 569 Z M1010 399 L369 399 L121 0 L-90 0 L883 1534 L887 1534 L1319 0 L1118 0 L1010 399 Z M1224 1920 Q1212 1842 1182 1785 Q1152 1728 1109.5 1690.5 Q1067 1653 1014.5 1634.5 Q962 1616 906 1616 Q851 1616 805 1633.5 Q759 1651 726 1683 Q693 1715 674.5 1760 Q656 1805 656 1860 Q656 1891 662 1920 L779 1920 Q777 1910 776 1899.5 Q775 1889 775 1877 Q775 1847 783.5 1820.5 Q792 1794 810 1774 Q828 1754 855 1742.5 Q882 1731 920 1731 Q960 1731 991 1744.5 Q1022 1758 1044.5 1782.5 Q1067 1807 1082.5 1842 Q1098 1877 1107 1920 L1224 1920 Z " />
<glyph glyph-name="Aring" unicode="&#xc5;" horiz-adv-x="1407" d="M965 569 L907 780 Q876 895 854.5 976.5 Q833 1058 817 1120 L813 1120 Q776 1058 726 977 Q676 896 608 786 L473 569 L965 569 Z M1010 399 L369 399 L121 0 L-90 0 L883 1534 L887 1534 L1319 0 L1118 0 L1010 399 Z M910 1573 Q864 1573 823.5 1588 Q783 1603 752.5 1631 Q722 1659 704.5 1698.5 Q687 1738 687 1786 Q687 1835 706 1881 Q725 1927 758 1962.5 Q791 1998 837 2019 Q883 2040 937 2040 Q983 2040 1023.5 2025 Q1064 2010 1094.5 1982 Q1125 1954 1142.5 1914 Q1160 1874 1160 1825 Q1160 1776 1141 1730.5 Q1122 1685 1089 1650 Q1056 1615 1010 1594 Q964 1573 910 1573 Z M914 1676 Q941 1676 966 1686.5 Q991 1697 1009.5 1716 Q1028 1735 1039.5 1761 Q1051 1787 1051 1819 Q1051 1841 1044 1862.5 Q1037 1884 1022.5 1901 Q1008 1918 986 1928 Q964 1938 933 1938 Q906 1938 881 1927 Q856 1916 837 1897 Q818 1878 806.5 1851 Q795 1824 795 1793 Q795 1771 802 1750 Q809 1729 823.5 1712.5 Q838 1696 860.5 1686 Q883 1676 914 1676 Z " />
<glyph glyph-name="Aogonek" unicode="&#x104;" horiz-adv-x="1407" d="M965 569 L907 780 Q876 895 854.5 976.5 Q833 1058 817 1120 L813 1120 Q776 1058 726 977 Q676 896 608 786 L473 569 L965 569 Z M1319 0 Q1271 -21 1227.5 -50 Q1184 -79 1151 -113 Q1118 -147 1098.5 -185 Q1079 -223 1079 -262 Q1079 -302 1105.5 -326 Q1132 -350 1186 -350 Q1201 -350 1217 -348.5 Q1233 -347 1247 -344 L1227 -467 Q1195 -473 1157 -473 Q1112 -473 1069.5 -462 Q1027 -451 994 -428 Q961 -405 941.5 -369.5 Q922 -334 922 -285 Q922 -241 936 -200 Q950 -159 975.5 -121.5 Q1001 -84 1036.5 -50 Q1072 -16 1114 14 L1010 399 L369 399 L121 0 L-90 0 L883 1534 L887 1534 L1319 0 Z " />
<glyph glyph-name="AE" unicode="&#xc6;" horiz-adv-x="1862" d="M465 399 L160 0 L-57 0 L1092 1483 L1921 1483 L1890 1307 L1280 1307 L1198 848 L1722 848 L1692 678 L1167 678 L1079 176 L1708 176 L1677 0 L854 0 L924 399 L465 399 Z M999 823 Q1005 857 1014 905.5 Q1023 954 1032.5 1004.5 Q1042 1055 1050.5 1102.5 Q1059 1150 1065 1182 L1061 1182 Q1005 1107 938 1019 Q871 931 793 827 L596 569 L954 569 L999 823 Z " />
<glyph glyph-name="AEacute" unicode="&#x1fc;" horiz-adv-x="1862" d="M465 399 L160 0 L-57 0 L1092 1483 L1921 1483 L1890 1307 L1280 1307 L1198 848 L1722 848 L1692 678 L1167 678 L1079 176 L1708 176 L1677 0 L854 0 L924 399 L465 399 Z M999 823 Q1005 857 1014 905.5 Q1023 954 1032.5 1004.5 Q1042 1055 1050.5 1102.5 Q1059 1150 1065 1182 L1061 1182 Q1005 1107 938 1019 Q871 931 793 827 L596 569 L954 569 L999 823 Z M1427 1598 L1285 1598 L1503 1934 L1711 1934 L1427 1598 Z " />
<glyph glyph-name="Cacute" unicode="&#x106;" horiz-adv-x="1362" d="M1184 35 Q1105 7 1017 -8 Q929 -23 838 -23 Q682 -23 551.5 20.5 Q421 64 326.5 147 Q232 230 179.5 351 Q127 472 127 627 Q127 710 143 795.5 Q159 881 191 964 Q223 1047 272 1124.5 Q321 1202 387 1268 Q506 1386 657 1445.5 Q808 1505 975 1505 Q1100 1505 1209.5 1475 Q1319 1445 1401 1397 L1366 1200 Q1279 1259 1178.5 1292 Q1078 1325 967 1325 Q834 1325 721 1279 Q608 1233 524 1149 Q475 1101 437 1041.5 Q399 982 373.5 916.5 Q348 851 335 781.5 Q322 712 322 645 Q322 531 358.5 441 Q395 351 463.5 288 Q532 225 630 191.5 Q728 158 852 158 Q951 158 1043.5 179.5 Q1136 201 1221 246 L1184 35 Z M1087 1598 L945 1598 L1163 1934 L1371 1934 L1087 1598 Z " />
<glyph glyph-name="Ccircumflex" unicode="&#x108;" horiz-adv-x="1362" d="M1184 35 Q1105 7 1017 -8 Q929 -23 838 -23 Q682 -23 551.5 20.5 Q421 64 326.5 147 Q232 230 179.5 351 Q127 472 127 627 Q127 710 143 795.5 Q159 881 191 964 Q223 1047 272 1124.5 Q321 1202 387 1268 Q506 1386 657 1445.5 Q808 1505 975 1505 Q1100 1505 1209.5 1475 Q1319 1445 1401 1397 L1366 1200 Q1279 1259 1178.5 1292 Q1078 1325 967 1325 Q834 1325 721 1279 Q608 1233 524 1149 Q475 1101 437 1041.5 Q399 982 373.5 916.5 Q348 851 335 781.5 Q322 712 322 645 Q322 531 358.5 441 Q395 351 463.5 288 Q532 225 630 191.5 Q728 158 852 158 Q951 158 1043.5 179.5 Q1136 201 1221 246 L1184 35 Z M648 1606 L1033 1954 L1041 1954 L1307 1606 L1137 1606 L1012 1756 L838 1606 L648 1606 Z " />
<glyph glyph-name="Ccaron" unicode="&#x10c;" horiz-adv-x="1362" d="M1184 35 Q1105 7 1017 -8 Q929 -23 838 -23 Q682 -23 551.5 20.5 Q421 64 326.5 147 Q232 230 179.5 351 Q127 472 127 627 Q127 710 143 795.5 Q159 881 191 964 Q223 1047 272 1124.5 Q321 1202 387 1268 Q506 1386 657 1445.5 Q808 1505 975 1505 Q1100 1505 1209.5 1475 Q1319 1445 1401 1397 L1366 1200 Q1279 1259 1178.5 1292 Q1078 1325 967 1325 Q834 1325 721 1279 Q608 1233 524 1149 Q475 1101 437 1041.5 Q399 982 373.5 916.5 Q348 851 335 781.5 Q322 712 322 645 Q322 531 358.5 441 Q395 351 463.5 288 Q532 225 630 191.5 Q728 158 852 158 Q951 158 1043.5 179.5 Q1136 201 1221 246 L1184 35 Z M1363 1926 L978 1578 L969 1578 L703 1926 L873 1926 L998 1776 L1172 1926 L1363 1926 Z " />
<glyph glyph-name="Cdotaccent" unicode="&#x10a;" horiz-adv-x="1362" d="M1184 35 Q1105 7 1017 -8 Q929 -23 838 -23 Q682 -23 551.5 20.5 Q421 64 326.5 147 Q232 230 179.5 351 Q127 472 127 627 Q127 710 143 795.5 Q159 881 191 964 Q223 1047 272 1124.5 Q321 1202 387 1268 Q506 1386 657 1445.5 Q808 1505 975 1505 Q1100 1505 1209.5 1475 Q1319 1445 1401 1397 L1366 1200 Q1279 1259 1178.5 1292 Q1078 1325 967 1325 Q834 1325 721 1279 Q608 1233 524 1149 Q475 1101 437 1041.5 Q399 982 373.5 916.5 Q348 851 335 781.5 Q322 712 322 645 Q322 531 358.5 441 Q395 351 463.5 288 Q532 225 630 191.5 Q728 158 852 158 Q951 158 1043.5 179.5 Q1136 201 1221 246 L1184 35 Z M1000 1653 Q977 1653 957.5 1661.5 Q938 1670 923.5 1684 Q909 1698 900.5 1717.5 Q892 1737 892 1760 Q892 1785 901.5 1807 Q911 1829 928 1845 Q945 1861 967 1870 Q989 1879 1015 1879 Q1038 1879 1057.5 1870.5 Q1077 1862 1091.5 1847.5 Q1106 1833 1114.5 1813.5 Q1123 1794 1123 1772 Q1123 1747 1113.5 1725 Q1104 1703 1087 1687 Q1070 1671 1047.5 1662 Q1025 1653 1000 1653 Z " />
<glyph glyph-name="Ccedilla" unicode="&#xc7;" horiz-adv-x="1362" d="M1366 1200 Q1279 1259 1178.5 1292 Q1078 1325 967 1325 Q834 1325 721 1279 Q608 1233 524 1149 Q475 1101 437 1041.5 Q399 982 373.5 916.5 Q348 851 335 781.5 Q322 712 322 645 Q322 531 358.5 441 Q395 351 463.5 288 Q532 225 630 191.5 Q728 158 852 158 Q951 158 1043.5 179.5 Q1136 201 1221 246 L1184 35 Q1105 7 1017 -8 Q929 -23 838 -23 Q770 -23 709 -14 L670 -92 Q701 -102 728 -117 Q755 -132 775 -152.5 Q795 -173 806 -200.5 Q817 -228 817 -262 Q817 -304 801 -339 Q785 -374 756.5 -399.5 Q728 -425 688.5 -439 Q649 -453 602 -453 Q556 -453 508.5 -438.5 Q461 -424 418 -395 L467 -297 Q493 -316 526.5 -332 Q560 -348 602 -348 Q620 -348 636.5 -344 Q653 -340 666.5 -331 Q680 -322 688 -308 Q696 -294 696 -274 Q696 -248 679 -229.5 Q662 -211 637 -198 Q612 -185 583 -177.5 Q554 -170 530 -166 L614 2 Q503 29 413.5 83 Q324 137 260 215.5 Q196 294 161.5 397.5 Q127 501 127 627 Q127 710 143 795.5 Q159 881 191 964 Q223 1047 272 1124.5 Q321 1202 387 1268 Q506 1386 657 1445.5 Q808 1505 975 1505 Q1100 1505 1209.5 1475 Q1319 1445 1401 1397 L1366 1200 Z " />
<glyph glyph-name="Dcaron" unicode="&#x10e;" horiz-adv-x="1489" d="M338 1483 L700 1483 Q884 1483 1018 1434.5 Q1152 1386 1245 1303 Q1345 1213 1398.5 1090.5 Q1452 968 1452 819 Q1452 745 1438 668.5 Q1424 592 1395 517.5 Q1366 443 1321.5 372.5 Q1277 302 1217 242 Q1101 128 936.5 64 Q772 0 555 0 L76 0 L338 1483 Z M569 176 Q662 176 740 190.5 Q818 205 882.5 231.5 Q947 258 998.5 294 Q1050 330 1090 373 Q1171 461 1214 575.5 Q1257 690 1257 805 Q1257 856 1248 905.5 Q1239 955 1221 1001 Q1203 1047 1175 1088.5 Q1147 1130 1110 1165 Q1075 1197 1031 1223.5 Q987 1250 933 1268.5 Q879 1287 815 1297 Q751 1307 676 1307 L502 1307 L301 176 L569 176 Z M1263 1926 L878 1578 L869 1578 L603 1926 L773 1926 L898 1776 L1072 1926 L1263 1926 Z " />
<glyph glyph-name="Dcroat" unicode="&#x110;" horiz-adv-x="1507" d="M76 836 L242 836 L356 1483 L719 1483 Q903 1483 1037 1434.5 Q1171 1386 1264 1303 Q1364 1213 1417 1090.5 Q1470 968 1470 819 Q1470 745 1456 668.5 Q1442 592 1413 517.5 Q1384 443 1340 372.5 Q1296 302 1235 242 Q1119 128 954.5 64 Q790 0 573 0 L94 0 L213 676 L47 676 L76 836 Z M588 176 Q681 176 759 190.5 Q837 205 901 231.5 Q965 258 1016.5 294 Q1068 330 1108 373 Q1149 416 1180.5 468 Q1212 520 1233 575.5 Q1254 631 1265 689.5 Q1276 748 1276 805 Q1276 856 1267 905.5 Q1258 955 1240 1001 Q1222 1047 1194 1088.5 Q1166 1130 1128 1165 Q1093 1197 1049 1223.5 Q1005 1250 951 1268.5 Q897 1287 833 1297 Q769 1307 694 1307 L520 1307 L436 836 L764 836 L735 676 L408 676 L319 176 L588 176 Z " />
<glyph glyph-name="Egrave" unicode="&#xc8;" horiz-adv-x="1124" d="M338 1483 L1184 1483 L1153 1307 L502 1307 L420 848 L985 848 L954 678 L389 678 L301 176 L971 176 L940 0 L76 0 L338 1483 Z M616 1934 L820 1934 L919 1598 L782 1598 L616 1934 Z " />
<glyph glyph-name="Eacute" unicode="&#xc9;" horiz-adv-x="1124" d="M338 1483 L1184 1483 L1153 1307 L502 1307 L420 848 L985 848 L954 678 L389 678 L301 176 L971 176 L940 0 L76 0 L338 1483 Z M792 1598 L650 1598 L868 1934 L1076 1934 L792 1598 Z " />
<glyph glyph-name="Ecircumflex" unicode="&#xca;" horiz-adv-x="1124" d="M338 1483 L1184 1483 L1153 1307 L502 1307 L420 848 L985 848 L954 678 L389 678 L301 176 L971 176 L940 0 L76 0 L338 1483 Z M456 1606 L841 1954 L849 1954 L1115 1606 L945 1606 L820 1756 L646 1606 L456 1606 Z " />
<glyph glyph-name="Ecaron" unicode="&#x11a;" horiz-adv-x="1124" d="M338 1483 L1184 1483 L1153 1307 L502 1307 L420 848 L985 848 L954 678 L389 678 L301 176 L971 176 L940 0 L76 0 L338 1483 Z M1171 1926 L786 1578 L777 1578 L511 1926 L681 1926 L806 1776 L980 1926 L1171 1926 Z " />
<glyph glyph-name="Edieresis" unicode="&#xcb;" horiz-adv-x="1124" d="M338 1483 L1184 1483 L1153 1307 L502 1307 L420 848 L985 848 L954 678 L389 678 L301 176 L971 176 L940 0 L76 0 L338 1483 Z M1007 1653 Q984 1653 964 1661.5 Q944 1670 929.5 1684 Q915 1698 906.5 1717.5 Q898 1737 898 1760 Q898 1785 908 1807 Q918 1829 934.5 1845 Q951 1861 973.5 1870 Q996 1879 1021 1879 Q1044 1879 1064 1870.5 Q1084 1862 1098.5 1847.5 Q1113 1833 1121.5 1813.5 Q1130 1794 1130 1772 Q1130 1747 1120 1725 Q1110 1703 1093.5 1687 Q1077 1671 1054.5 1662 Q1032 1653 1007 1653 Z M610 1653 Q587 1653 567 1661.5 Q547 1670 532.5 1684 Q518 1698 509.5 1717.5 Q501 1737 501 1760 Q501 1785 510.5 1807 Q520 1829 537 1845 Q554 1861 576 1870 Q598 1879 624 1879 Q647 1879 666.5 1870.5 Q686 1862 700.5 1847.5 Q715 1833 723.5 1813.5 Q732 1794 732 1772 Q732 1747 722.5 1725 Q713 1703 696.5 1687 Q680 1671 657.5 1662 Q635 1653 610 1653 Z " />
<glyph glyph-name="Emacron" unicode="&#x112;" horiz-adv-x="1124" d="M338 1483 L1184 1483 L1153 1307 L502 1307 L420 848 L985 848 L954 678 L389 678 L301 176 L971 176 L940 0 L76 0 L338 1483 Z M546 1836 L1105 1836 L1081 1696 L521 1696 L546 1836 Z " />
<glyph glyph-name="Ebreve" unicode="&#x114;" horiz-adv-x="1124" d="M338 1483 L1184 1483 L1153 1307 L502 1307 L420 848 L985 848 L954 678 L389 678 L301 176 L971 176 L940 0 L76 0 L338 1483 Z M1122 1920 Q1110 1842 1080 1785 Q1050 1728 1007.5 1690.5 Q965 1653 912.5 1634.5 Q860 1616 804 1616 Q749 1616 703 1633.5 Q657 1651 624 1683 Q591 1715 572.5 1760 Q554 1805 554 1860 Q554 1891 560 1920 L677 1920 Q675 1910 674 1899.5 Q673 1889 673 1877 Q673 1847 681.5 1820.5 Q690 1794 708 1774 Q726 1754 753 1742.5 Q780 1731 818 1731 Q858 1731 889 1744.5 Q920 1758 942.5 1782.5 Q965 1807 980.5 1842 Q996 1877 1005 1920 L1122 1920 Z " />
<glyph glyph-name="Edotaccent" unicode="&#x116;" horiz-adv-x="1124" d="M338 1483 L1184 1483 L1153 1307 L502 1307 L420 848 L985 848 L954 678 L389 678 L301 176 L971 176 L940 0 L76 0 L338 1483 Z M808 1653 Q785 1653 765.5 1661.5 Q746 1670 731.5 1684 Q717 1698 708.5 1717.5 Q700 1737 700 1760 Q700 1785 709.5 1807 Q719 1829 736 1845 Q753 1861 775 1870 Q797 1879 823 1879 Q846 1879 865.5 1870.5 Q885 1862 899.5 1847.5 Q914 1833 922.5 1813.5 Q931 1794 931 1772 Q931 1747 921.5 1725 Q912 1703 895 1687 Q878 1671 855.5 1662 Q833 1653 808 1653 Z " />
<glyph glyph-name="Eogonek" unicode="&#x118;" horiz-adv-x="1124" d="M338 1483 L1184 1483 L1153 1307 L502 1307 L420 848 L985 848 L954 678 L389 678 L301 176 L971 176 L940 0 Q894 -22 852 -51 Q810 -80 778.5 -114 Q747 -148 728 -185 Q709 -222 709 -260 Q709 -300 736 -324 Q763 -348 817 -348 Q831 -348 848 -346.5 Q865 -345 879 -342 L856 -467 Q842 -469 824 -471 Q806 -473 784 -473 Q740 -473 698 -462 Q656 -451 623.5 -428 Q591 -405 571 -369.5 Q551 -334 551 -285 Q551 -243 564 -204 Q577 -165 600.5 -129 Q624 -93 655.5 -61.5 Q687 -30 725 -4 L723 0 L76 0 L338 1483 Z " />
<glyph glyph-name="Gcircumflex" unicode="&#x11c;" horiz-adv-x="1485" d="M1266 78 Q1178 34 1060.5 5.5 Q943 -23 813 -23 Q663 -23 536.5 21 Q410 65 318.5 148.5 Q227 232 176 353 Q125 474 125 629 Q125 716 142 805 Q159 894 193.5 978.5 Q228 1063 280 1141 Q332 1219 401 1284 Q517 1394 662.5 1449.5 Q808 1505 969 1505 Q1036 1505 1102 1495.5 Q1168 1486 1229.5 1468.5 Q1291 1451 1346 1426 Q1401 1401 1446 1370 L1411 1176 Q1366 1208 1313.5 1235.5 Q1261 1263 1204 1283 Q1147 1303 1086.5 1314 Q1026 1325 963 1325 Q897 1325 836.5 1313 Q776 1301 722 1279 Q668 1257 621 1226.5 Q574 1196 535 1159 Q482 1110 442 1050.5 Q402 991 374.5 925.5 Q347 860 333 790 Q319 720 319 649 Q319 539 353 448 Q387 357 451.5 291.5 Q516 226 610.5 190 Q705 154 825 154 Q906 154 974.5 169.5 Q1043 185 1094 207 L1157 569 L831 569 L862 739 L1382 739 L1266 78 Z M681 1606 L1066 1954 L1074 1954 L1340 1606 L1170 1606 L1045 1756 L871 1606 L681 1606 Z " />
<glyph glyph-name="Gbreve" unicode="&#x11e;" horiz-adv-x="1485" d="M1266 78 Q1178 34 1060.5 5.5 Q943 -23 813 -23 Q663 -23 536.5 21 Q410 65 318.5 148.5 Q227 232 176 353 Q125 474 125 629 Q125 716 142 805 Q159 894 193.5 978.5 Q228 1063 280 1141 Q332 1219 401 1284 Q517 1394 662.5 1449.5 Q808 1505 969 1505 Q1036 1505 1102 1495.5 Q1168 1486 1229.5 1468.5 Q1291 1451 1346 1426 Q1401 1401 1446 1370 L1411 1176 Q1366 1208 1313.5 1235.5 Q1261 1263 1204 1283 Q1147 1303 1086.5 1314 Q1026 1325 963 1325 Q897 1325 836.5 1313 Q776 1301 722 1279 Q668 1257 621 1226.5 Q574 1196 535 1159 Q482 1110 442 1050.5 Q402 991 374.5 925.5 Q347 860 333 790 Q319 720 319 649 Q319 539 353 448 Q387 357 451.5 291.5 Q516 226 610.5 190 Q705 154 825 154 Q906 154 974.5 169.5 Q1043 185 1094 207 L1157 569 L831 569 L862 739 L1382 739 L1266 78 Z M1347 1920 Q1335 1842 1305 1785 Q1275 1728 1232.5 1690.5 Q1190 1653 1137.5 1634.5 Q1085 1616 1029 1616 Q974 1616 928 1633.5 Q882 1651 849 1683 Q816 1715 797.5 1760 Q779 1805 779 1860 Q779 1891 785 1920 L902 1920 Q900 1910 899 1899.5 Q898 1889 898 1877 Q898 1847 906.5 1820.5 Q915 1794 933 1774 Q951 1754 978 1742.5 Q1005 1731 1043 1731 Q1083 1731 1114 1744.5 Q1145 1758 1167.5 1782.5 Q1190 1807 1205.5 1842 Q1221 1877 1230 1920 L1347 1920 Z " />
<glyph glyph-name="Gdotaccent" unicode="&#x120;" horiz-adv-x="1485" d="M1266 78 Q1178 34 1060.5 5.5 Q943 -23 813 -23 Q663 -23 536.5 21 Q410 65 318.5 148.5 Q227 232 176 353 Q125 474 125 629 Q125 716 142 805 Q159 894 193.5 978.5 Q228 1063 280 1141 Q332 1219 401 1284 Q517 1394 662.5 1449.5 Q808 1505 969 1505 Q1036 1505 1102 1495.5 Q1168 1486 1229.5 1468.5 Q1291 1451 1346 1426 Q1401 1401 1446 1370 L1411 1176 Q1366 1208 1313.5 1235.5 Q1261 1263 1204 1283 Q1147 1303 1086.5 1314 Q1026 1325 963 1325 Q897 1325 836.5 1313 Q776 1301 722 1279 Q668 1257 621 1226.5 Q574 1196 535 1159 Q482 1110 442 1050.5 Q402 991 374.5 925.5 Q347 860 333 790 Q319 720 319 649 Q319 539 353 448 Q387 357 451.5 291.5 Q516 226 610.5 190 Q705 154 825 154 Q906 154 974.5 169.5 Q1043 185 1094 207 L1157 569 L831 569 L862 739 L1382 739 L1266 78 Z M1033 1653 Q1010 1653 990.5 1661.5 Q971 1670 956.5 1684 Q942 1698 933.5 1717.5 Q925 1737 925 1760 Q925 1785 934.5 1807 Q944 1829 961 1845 Q978 1861 1000 1870 Q1022 1879 1048 1879 Q1071 1879 1090.5 1870.5 Q1110 1862 1124.5 1847.5 Q1139 1833 1147.5 1813.5 Q1156 1794 1156 1772 Q1156 1747 1146.5 1725 Q1137 1703 1120 1687 Q1103 1671 1080.5 1662 Q1058 1653 1033 1653 Z " />
<glyph glyph-name="Gcommaaccent" unicode="&#x122;" horiz-adv-x="1485" d="M1266 78 Q1178 34 1060.5 5.5 Q943 -23 813 -23 Q663 -23 536.5 21 Q410 65 318.5 148.5 Q227 232 176 353 Q125 474 125 629 Q125 716 142 805 Q159 894 193.5 978.5 Q228 1063 280 1141 Q332 1219 401 1284 Q517 1394 662.5 1449.5 Q808 1505 969 1505 Q1036 1505 1102 1495.5 Q1168 1486 1229.5 1468.5 Q1291 1451 1346 1426 Q1401 1401 1446 1370 L1411 1176 Q1366 1208 1313.5 1235.5 Q1261 1263 1204 1283 Q1147 1303 1086.5 1314 Q1026 1325 963 1325 Q897 1325 836.5 1313 Q776 1301 722 1279 Q668 1257 621 1226.5 Q574 1196 535 1159 Q482 1110 442 1050.5 Q402 991 374.5 925.5 Q347 860 333 790 Q319 720 319 649 Q319 539 353 448 Q387 357 451.5 291.5 Q516 226 610.5 190 Q705 154 825 154 Q906 154 974.5 169.5 Q1043 185 1094 207 L1157 569 L831 569 L862 739 L1382 739 L1266 78 Z M813 -111 L577 -557 L438 -557 L629 -111 L813 -111 Z " />
<glyph glyph-name="Hcircumflex" unicode="&#x124;" horiz-adv-x="1505" d="M338 1483 L532 1483 L420 850 L1206 850 L1319 1483 L1513 1483 L1251 0 L1057 0 L1176 674 L389 674 L270 0 L76 0 L338 1483 Z M618 1606 L1003 1954 L1011 1954 L1277 1606 L1107 1606 L982 1756 L808 1606 L618 1606 Z " />
<glyph glyph-name="Hbar" unicode="&#x126;" horiz-adv-x="1505" d="M131 1249 L297 1249 L338 1483 L532 1483 L492 1249 L1278 1249 L1319 1483 L1513 1483 L1473 1249 L1638 1249 L1610 1090 L1444 1090 L1251 0 L1057 0 L1176 674 L389 674 L270 0 L76 0 L268 1090 L102 1090 L131 1249 Z M1206 850 L1249 1090 L463 1090 L420 850 L1206 850 Z " />
<glyph glyph-name="Igrave" unicode="&#xcc;" horiz-adv-x="524" d="M338 1483 L532 1483 L270 0 L76 0 L338 1483 Z M289 1934 L493 1934 L592 1598 L455 1598 L289 1934 Z " />
<glyph glyph-name="Iacute" unicode="&#xcd;" horiz-adv-x="524" d="M338 1483 L532 1483 L270 0 L76 0 L338 1483 Z M465 1598 L323 1598 L541 1934 L749 1934 L465 1598 Z " />
<glyph glyph-name="Icircumflex" unicode="&#xce;" horiz-adv-x="524" d="M338 1483 L532 1483 L270 0 L76 0 L338 1483 Z M129 1606 L514 1954 L522 1954 L788 1606 L618 1606 L493 1756 L319 1606 L129 1606 Z " />
<glyph glyph-name="Itilde" unicode="&#x128;" horiz-adv-x="524" d="M338 1483 L532 1483 L270 0 L76 0 L338 1483 Z M792 1721 Q765 1690 721.5 1667.5 Q678 1645 622 1645 Q582 1645 543.5 1660 Q505 1675 459 1698 Q418 1718 386 1729.5 Q354 1741 319 1741 Q292 1741 268 1732.5 Q244 1724 223.5 1709.5 Q203 1695 186 1677 Q169 1659 156 1641 L151 1643 L182 1817 Q210 1848 253 1870.5 Q296 1893 352 1893 Q392 1893 431 1878 Q470 1863 516 1840 Q556 1820 588 1808.5 Q620 1797 655 1797 Q683 1797 707 1805.5 Q731 1814 751 1828.5 Q771 1843 788 1861 Q805 1879 819 1897 L823 1895 L792 1721 Z " />
<glyph glyph-name="Idieresis" unicode="&#xcf;" horiz-adv-x="524" d="M338 1483 L532 1483 L270 0 L76 0 L338 1483 Z M680 1653 Q657 1653 637 1661.5 Q617 1670 602.5 1684 Q588 1698 579.5 1717.5 Q571 1737 571 1760 Q571 1785 581 1807 Q591 1829 607.5 1845 Q624 1861 646.5 1870 Q669 1879 694 1879 Q717 1879 737 1870.5 Q757 1862 771.5 1847.5 Q786 1833 794.5 1813.5 Q803 1794 803 1772 Q803 1747 793 1725 Q783 1703 766.5 1687 Q750 1671 727.5 1662 Q705 1653 680 1653 Z M283 1653 Q260 1653 240 1661.5 Q220 1670 205.5 1684 Q191 1698 182.5 1717.5 Q174 1737 174 1760 Q174 1785 183.5 1807 Q193 1829 210 1845 Q227 1861 249 1870 Q271 1879 297 1879 Q320 1879 339.5 1870.5 Q359 1862 373.5 1847.5 Q388 1833 396.5 1813.5 Q405 1794 405 1772 Q405 1747 395.5 1725 Q386 1703 369.5 1687 Q353 1671 330.5 1662 Q308 1653 283 1653 Z " />
<glyph glyph-name="Imacron" unicode="&#x12a;" horiz-adv-x="524" d="M338 1483 L532 1483 L270 0 L76 0 L338 1483 Z M219 1836 L778 1836 L754 1696 L194 1696 L219 1836 Z " />
<glyph glyph-name="Ibreve" unicode="&#x12c;" horiz-adv-x="524" d="M338 1483 L532 1483 L270 0 L76 0 L338 1483 Z M795 1920 Q783 1842 753 1785 Q723 1728 680.5 1690.5 Q638 1653 585.5 1634.5 Q533 1616 477 1616 Q422 1616 376 1633.5 Q330 1651 297 1683 Q264 1715 245.5 1760 Q227 1805 227 1860 Q227 1891 233 1920 L350 1920 Q348 1910 347 1899.5 Q346 1889 346 1877 Q346 1847 354.5 1820.5 Q363 1794 381 1774 Q399 1754 426 1742.5 Q453 1731 491 1731 Q531 1731 562 1744.5 Q593 1758 615.5 1782.5 Q638 1807 653.5 1842 Q669 1877 678 1920 L795 1920 Z " />
<glyph glyph-name="Idotaccent" unicode="&#x130;" horiz-adv-x="524" d="M338 1483 L532 1483 L270 0 L76 0 L338 1483 Z M486 1683 Q463 1683 443.5 1691.5 Q424 1700 409.5 1714 Q395 1728 386.5 1747.5 Q378 1767 378 1790 Q378 1815 387.5 1837 Q397 1859 414 1875 Q431 1891 453 1900 Q475 1909 501 1909 Q524 1909 543.5 1900.5 Q563 1892 577.5 1877.5 Q592 1863 600.5 1843.5 Q609 1824 609 1802 Q609 1777 599.5 1755 Q590 1733 573 1717 Q556 1701 533.5 1692 Q511 1683 486 1683 Z " />
<glyph glyph-name="Iogonek" unicode="&#x12e;" horiz-adv-x="524" d="M338 1483 L532 1483 L270 0 Q235 -25 201.5 -54 Q168 -83 142 -115.5 Q116 -148 100 -183 Q84 -218 84 -254 Q84 -299 112.5 -324.5 Q141 -350 195 -350 Q207 -350 227 -347.5 Q247 -345 262 -342 L240 -465 Q223 -468 203 -470.5 Q183 -473 162 -473 Q115 -473 72.5 -461 Q30 -449 -2.5 -424.5 Q-35 -400 -54.5 -363.5 Q-74 -327 -74 -279 Q-74 -240 -62.5 -201.5 Q-51 -163 -30.5 -127.5 Q-10 -92 17 -60 Q44 -28 76 0 L338 1483 Z " />
<glyph glyph-name="IJ" unicode="&#x132;" horiz-adv-x="1317" d="M338 1483 L532 1483 L270 0 L76 0 L338 1483 Z M1130 1483 L1325 1483 L1132 387 Q1114 280 1085.5 214.5 Q1057 149 1020 104 Q964 38 888.5 7.5 Q813 -23 725 -23 Q660 -23 599.5 -8 Q539 7 489 29 L522 217 Q570 192 623 175 Q676 158 727 158 Q783 158 819.5 176.5 Q856 195 880 228.5 Q904 262 918 309 Q932 356 942 412 L1130 1483 Z " />
<glyph glyph-name="Jcircumflex" unicode="&#x134;" horiz-adv-x="793" d="M606 1483 L801 1483 L608 387 Q590 280 561.5 214.5 Q533 149 496 104 Q440 38 364.5 7.5 Q289 -23 201 -23 Q136 -23 75.5 -8 Q15 7 -35 29 L-2 217 Q46 192 99 175 Q152 158 203 158 Q259 158 295.5 176.5 Q332 195 356 228.5 Q380 262 394 309 Q408 356 418 412 L606 1483 Z M399 1606 L784 1954 L792 1954 L1058 1606 L888 1606 L763 1756 L589 1606 L399 1606 Z " />
<glyph glyph-name="Kcommaaccent" unicode="&#x136;" horiz-adv-x="1282" d="M338 1483 L532 1483 L410 791 L414 788 L1165 1483 L1413 1483 L625 760 L1184 0 L950 0 L406 745 L401 745 L270 0 L76 0 L338 1483 Z M639 -111 L403 -557 L264 -557 L455 -111 L639 -111 Z " />
<glyph glyph-name="Lacute" unicode="&#x139;" horiz-adv-x="1108" d="M338 1483 L532 1483 L303 176 L1001 176 L971 0 L76 0 L338 1483 Z M512 1598 L370 1598 L588 1934 L796 1934 L512 1598 Z " />
<glyph glyph-name="Lcaron" unicode="&#x13d;" horiz-adv-x="1108" d="M338 1483 L532 1483 L303 176 L1001 176 L971 0 L76 0 L338 1483 Z M887 1598 L1069 1598 L803 1047 L678 1047 L887 1598 Z " />
<glyph glyph-name="Lcommaaccent" unicode="&#x13b;" horiz-adv-x="1108" d="M338 1483 L532 1483 L303 176 L1001 176 L971 0 L76 0 L338 1483 Z M592 -111 L356 -557 L217 -557 L408 -111 L592 -111 Z " />
<glyph glyph-name="Lslash" unicode="&#x141;" horiz-adv-x="1122" d="M16 623 L221 739 L352 1483 L547 1483 L438 864 L709 1020 L678 844 L408 688 L317 176 L1016 176 L985 0 L90 0 L188 563 L-14 446 L16 623 Z " />
<glyph glyph-name="Ldot" unicode="&#x13f;" horiz-adv-x="1108" d="M338 1483 L532 1483 L303 176 L1001 176 L971 0 L76 0 L338 1483 Z M729 784 Q729 812 740 836 Q751 860 769.5 878 Q788 896 812.5 906.5 Q837 917 864 917 Q891 917 913.5 907.5 Q936 898 951.5 881.5 Q967 865 976 843 Q985 821 985 797 Q985 769 974.5 744.5 Q964 720 945.5 702 Q927 684 902.5 673.5 Q878 663 850 663 Q823 663 800.5 673 Q778 683 762.5 699.5 Q747 716 738 738 Q729 760 729 784 Z " />
<glyph glyph-name="Nacute" unicode="&#x143;" horiz-adv-x="1561" d="M76 0 L346 1532 L350 1534 L977 680 Q1031 606 1083 534 Q1135 462 1186 391 L1190 393 Q1202 469 1215.5 548.5 Q1229 628 1243 707 L1380 1483 L1569 1483 L1298 -49 L1294 -51 L668 803 Q614 877 562 948.5 Q510 1020 459 1092 L455 1090 Q442 1014 428.5 934.5 Q415 855 401 776 L264 0 L76 0 Z M982 1598 L840 1598 L1058 1934 L1266 1934 L982 1598 Z " />
<glyph glyph-name="Ncaron" unicode="&#x147;" horiz-adv-x="1561" d="M76 0 L346 1532 L350 1534 L977 680 Q1031 606 1083 534 Q1135 462 1186 391 L1190 393 Q1202 469 1215.5 548.5 Q1229 628 1243 707 L1380 1483 L1569 1483 L1298 -49 L1294 -51 L668 803 Q614 877 562 948.5 Q510 1020 459 1092 L455 1090 Q442 1014 428.5 934.5 Q415 855 401 776 L264 0 L76 0 Z M1361 1926 L976 1578 L967 1578 L701 1926 L871 1926 L996 1776 L1170 1926 L1361 1926 Z " />
<glyph glyph-name="Ntilde" unicode="&#xd1;" horiz-adv-x="1561" d="M76 0 L346 1532 L350 1534 L977 680 Q1031 606 1083 534 Q1135 462 1186 391 L1190 393 Q1202 469 1215.5 548.5 Q1229 628 1243 707 L1380 1483 L1569 1483 L1298 -49 L1294 -51 L668 803 Q614 877 562 948.5 Q510 1020 459 1092 L455 1090 Q442 1014 428.5 934.5 Q415 855 401 776 L264 0 L76 0 Z M1309 1721 Q1282 1690 1238.5 1667.5 Q1195 1645 1139 1645 Q1099 1645 1060.5 1660 Q1022 1675 976 1698 Q935 1718 903 1729.5 Q871 1741 836 1741 Q809 1741 785 1732.5 Q761 1724 740.5 1709.5 Q720 1695 703 1677 Q686 1659 673 1641 L668 1643 L699 1817 Q727 1848 770 1870.5 Q813 1893 869 1893 Q909 1893 948 1878 Q987 1863 1033 1840 Q1073 1820 1105 1808.5 Q1137 1797 1172 1797 Q1200 1797 1224 1805.5 Q1248 1814 1268 1828.5 Q1288 1843 1305 1861 Q1322 1879 1336 1897 L1340 1895 L1309 1721 Z " />
<glyph glyph-name="Ncommaaccent" unicode="&#x145;" horiz-adv-x="1561" d="M76 0 L346 1532 L350 1534 L977 680 Q1031 606 1083 534 Q1135 462 1186 391 L1190 393 Q1202 469 1215.5 548.5 Q1229 628 1243 707 L1380 1483 L1569 1483 L1298 -49 L1294 -51 L668 803 Q614 877 562 948.5 Q510 1020 459 1092 L455 1090 Q442 1014 428.5 934.5 Q415 855 401 776 L264 0 L76 0 Z M778 -111 L542 -557 L403 -557 L594 -111 L778 -111 Z " />
<glyph glyph-name="Ograve" unicode="&#xd2;" horiz-adv-x="1634" d="M127 664 Q127 740 140 815.5 Q153 891 178.5 964 Q204 1037 241.5 1104.5 Q279 1172 328 1231 Q379 1293 442.5 1343.5 Q506 1394 579.5 1430 Q653 1466 736.5 1485.5 Q820 1505 911 1505 Q1053 1505 1177 1457 Q1301 1409 1392.5 1319.5 Q1484 1230 1536.5 1103 Q1589 976 1589 819 Q1589 743 1576 667 Q1563 591 1538 518.5 Q1513 446 1475.5 378.5 Q1438 311 1389 252 Q1337 190 1273.5 139 Q1210 88 1136.5 52 Q1063 16 979.5 -3.5 Q896 -23 805 -23 Q663 -23 539 25.5 Q415 74 323.5 163 Q232 252 179.5 379 Q127 506 127 664 Z M322 678 Q322 569 356.5 474 Q391 379 454.5 309 Q518 239 609 198.5 Q700 158 813 158 Q943 158 1051 210.5 Q1159 263 1239 362 Q1311 452 1353 567.5 Q1395 683 1395 805 Q1395 914 1360.5 1009 Q1326 1104 1262 1174 Q1198 1244 1107 1284.5 Q1016 1325 903 1325 Q773 1325 665.5 1272 Q558 1219 477 1120 Q405 1030 363.5 915 Q322 800 322 678 Z M843 1934 L1047 1934 L1146 1598 L1009 1598 L843 1934 Z " />
<glyph glyph-name="Oacute" unicode="&#xd3;" horiz-adv-x="1634" d="M127 664 Q127 740 140 815.5 Q153 891 178.5 964 Q204 1037 241.5 1104.5 Q279 1172 328 1231 Q379 1293 442.5 1343.5 Q506 1394 579.5 1430 Q653 1466 736.5 1485.5 Q820 1505 911 1505 Q1053 1505 1177 1457 Q1301 1409 1392.5 1319.5 Q1484 1230 1536.5 1103 Q1589 976 1589 819 Q1589 743 1576 667 Q1563 591 1538 518.5 Q1513 446 1475.5 378.5 Q1438 311 1389 252 Q1337 190 1273.5 139 Q1210 88 1136.5 52 Q1063 16 979.5 -3.5 Q896 -23 805 -23 Q663 -23 539 25.5 Q415 74 323.5 163 Q232 252 179.5 379 Q127 506 127 664 Z M322 678 Q322 569 356.5 474 Q391 379 454.5 309 Q518 239 609 198.5 Q700 158 813 158 Q943 158 1051 210.5 Q1159 263 1239 362 Q1311 452 1353 567.5 Q1395 683 1395 805 Q1395 914 1360.5 1009 Q1326 1104 1262 1174 Q1198 1244 1107 1284.5 Q1016 1325 903 1325 Q773 1325 665.5 1272 Q558 1219 477 1120 Q405 1030 363.5 915 Q322 800 322 678 Z M1019 1598 L877 1598 L1095 1934 L1303 1934 L1019 1598 Z " />
<glyph glyph-name="Ocircumflex" unicode="&#xd4;" horiz-adv-x="1634" d="M127 664 Q127 740 140 815.5 Q153 891 178.5 964 Q204 1037 241.5 1104.5 Q279 1172 328 1231 Q379 1293 442.5 1343.5 Q506 1394 579.5 1430 Q653 1466 736.5 1485.5 Q820 1505 911 1505 Q1053 1505 1177 1457 Q1301 1409 1392.5 1319.5 Q1484 1230 1536.5 1103 Q1589 976 1589 819 Q1589 743 1576 667 Q1563 591 1538 518.5 Q1513 446 1475.5 378.5 Q1438 311 1389 252 Q1337 190 1273.5 139 Q1210 88 1136.5 52 Q1063 16 979.5 -3.5 Q896 -23 805 -23 Q663 -23 539 25.5 Q415 74 323.5 163 Q232 252 179.5 379 Q127 506 127 664 Z M322 678 Q322 569 356.5 474 Q391 379 454.5 309 Q518 239 609 198.5 Q700 158 813 158 Q943 158 1051 210.5 Q1159 263 1239 362 Q1311 452 1353 567.5 Q1395 683 1395 805 Q1395 914 1360.5 1009 Q1326 1104 1262 1174 Q1198 1244 1107 1284.5 Q1016 1325 903 1325 Q773 1325 665.5 1272 Q558 1219 477 1120 Q405 1030 363.5 915 Q322 800 322 678 Z M683 1606 L1068 1954 L1076 1954 L1342 1606 L1172 1606 L1047 1756 L873 1606 L683 1606 Z " />
<glyph glyph-name="Otilde" unicode="&#xd5;" horiz-adv-x="1634" d="M127 664 Q127 740 140 815.5 Q153 891 178.5 964 Q204 1037 241.5 1104.5 Q279 1172 328 1231 Q379 1293 442.5 1343.5 Q506 1394 579.5 1430 Q653 1466 736.5 1485.5 Q820 1505 911 1505 Q1053 1505 1177 1457 Q1301 1409 1392.5 1319.5 Q1484 1230 1536.5 1103 Q1589 976 1589 819 Q1589 743 1576 667 Q1563 591 1538 518.5 Q1513 446 1475.5 378.5 Q1438 311 1389 252 Q1337 190 1273.5 139 Q1210 88 1136.5 52 Q1063 16 979.5 -3.5 Q896 -23 805 -23 Q663 -23 539 25.5 Q415 74 323.5 163 Q232 252 179.5 379 Q127 506 127 664 Z M322 678 Q322 569 356.5 474 Q391 379 454.5 309 Q518 239 609 198.5 Q700 158 813 158 Q943 158 1051 210.5 Q1159 263 1239 362 Q1311 452 1353 567.5 Q1395 683 1395 805 Q1395 914 1360.5 1009 Q1326 1104 1262 1174 Q1198 1244 1107 1284.5 Q1016 1325 903 1325 Q773 1325 665.5 1272 Q558 1219 477 1120 Q405 1030 363.5 915 Q322 800 322 678 Z M1346 1721 Q1319 1690 1275.5 1667.5 Q1232 1645 1176 1645 Q1136 1645 1097.5 1660 Q1059 1675 1013 1698 Q972 1718 940 1729.5 Q908 1741 873 1741 Q846 1741 822 1732.5 Q798 1724 777.5 1709.5 Q757 1695 740 1677 Q723 1659 710 1641 L705 1643 L736 1817 Q764 1848 807 1870.5 Q850 1893 906 1893 Q946 1893 985 1878 Q1024 1863 1070 1840 Q1110 1820 1142 1808.5 Q1174 1797 1209 1797 Q1237 1797 1261 1805.5 Q1285 1814 1305 1828.5 Q1325 1843 1342 1861 Q1359 1879 1373 1897 L1377 1895 L1346 1721 Z " />
<glyph glyph-name="Odieresis" unicode="&#xd6;" horiz-adv-x="1634" d="M127 664 Q127 740 140 815.5 Q153 891 178.5 964 Q204 1037 241.5 1104.5 Q279 1172 328 1231 Q379 1293 442.5 1343.5 Q506 1394 579.5 1430 Q653 1466 736.5 1485.5 Q820 1505 911 1505 Q1053 1505 1177 1457 Q1301 1409 1392.5 1319.5 Q1484 1230 1536.5 1103 Q1589 976 1589 819 Q1589 743 1576 667 Q1563 591 1538 518.5 Q1513 446 1475.5 378.5 Q1438 311 1389 252 Q1337 190 1273.5 139 Q1210 88 1136.5 52 Q1063 16 979.5 -3.5 Q896 -23 805 -23 Q663 -23 539 25.5 Q415 74 323.5 163 Q232 252 179.5 379 Q127 506 127 664 Z M322 678 Q322 569 356.5 474 Q391 379 454.5 309 Q518 239 609 198.5 Q700 158 813 158 Q943 158 1051 210.5 Q1159 263 1239 362 Q1311 452 1353 567.5 Q1395 683 1395 805 Q1395 914 1360.5 1009 Q1326 1104 1262 1174 Q1198 1244 1107 1284.5 Q1016 1325 903 1325 Q773 1325 665.5 1272 Q558 1219 477 1120 Q405 1030 363.5 915 Q322 800 322 678 Z M1234 1653 Q1211 1653 1191 1661.5 Q1171 1670 1156.5 1684 Q1142 1698 1133.5 1717.5 Q1125 1737 1125 1760 Q1125 1785 1135 1807 Q1145 1829 1161.5 1845 Q1178 1861 1200.5 1870 Q1223 1879 1248 1879 Q1271 1879 1291 1870.5 Q1311 1862 1325.5 1847.5 Q1340 1833 1348.5 1813.5 Q1357 1794 1357 1772 Q1357 1747 1347 1725 Q1337 1703 1320.5 1687 Q1304 1671 1281.5 1662 Q1259 1653 1234 1653 Z M837 1653 Q814 1653 794 1661.5 Q774 1670 759.5 1684 Q745 1698 736.5 1717.5 Q728 1737 728 1760 Q728 1785 737.5 1807 Q747 1829 764 1845 Q781 1861 803 1870 Q825 1879 851 1879 Q874 1879 893.5 1870.5 Q913 1862 927.5 1847.5 Q942 1833 950.5 1813.5 Q959 1794 959 1772 Q959 1747 949.5 1725 Q940 1703 923.5 1687 Q907 1671 884.5 1662 Q862 1653 837 1653 Z " />
<glyph glyph-name="Omacron" unicode="&#x14c;" horiz-adv-x="1634" d="M127 664 Q127 740 140 815.5 Q153 891 178.5 964 Q204 1037 241.5 1104.5 Q279 1172 328 1231 Q379 1293 442.5 1343.5 Q506 1394 579.5 1430 Q653 1466 736.5 1485.5 Q820 1505 911 1505 Q1053 1505 1177 1457 Q1301 1409 1392.5 1319.5 Q1484 1230 1536.5 1103 Q1589 976 1589 819 Q1589 743 1576 667 Q1563 591 1538 518.5 Q1513 446 1475.5 378.5 Q1438 311 1389 252 Q1337 190 1273.5 139 Q1210 88 1136.5 52 Q1063 16 979.5 -3.5 Q896 -23 805 -23 Q663 -23 539 25.5 Q415 74 323.5 163 Q232 252 179.5 379 Q127 506 127 664 Z M322 678 Q322 569 356.5 474 Q391 379 454.5 309 Q518 239 609 198.5 Q700 158 813 158 Q943 158 1051 210.5 Q1159 263 1239 362 Q1311 452 1353 567.5 Q1395 683 1395 805 Q1395 914 1360.5 1009 Q1326 1104 1262 1174 Q1198 1244 1107 1284.5 Q1016 1325 903 1325 Q773 1325 665.5 1272 Q558 1219 477 1120 Q405 1030 363.5 915 Q322 800 322 678 Z M773 1836 L1332 1836 L1308 1696 L748 1696 L773 1836 Z " />
<glyph glyph-name="Obreve" unicode="&#x14e;" horiz-adv-x="1634" d="M127 664 Q127 740 140 815.5 Q153 891 178.5 964 Q204 1037 241.5 1104.5 Q279 1172 328 1231 Q379 1293 442.5 1343.5 Q506 1394 579.5 1430 Q653 1466 736.5 1485.5 Q820 1505 911 1505 Q1053 1505 1177 1457 Q1301 1409 1392.5 1319.5 Q1484 1230 1536.5 1103 Q1589 976 1589 819 Q1589 743 1576 667 Q1563 591 1538 518.5 Q1513 446 1475.5 378.5 Q1438 311 1389 252 Q1337 190 1273.5 139 Q1210 88 1136.5 52 Q1063 16 979.5 -3.5 Q896 -23 805 -23 Q663 -23 539 25.5 Q415 74 323.5 163 Q232 252 179.5 379 Q127 506 127 664 Z M322 678 Q322 569 356.5 474 Q391 379 454.5 309 Q518 239 609 198.5 Q700 158 813 158 Q943 158 1051 210.5 Q1159 263 1239 362 Q1311 452 1353 567.5 Q1395 683 1395 805 Q1395 914 1360.5 1009 Q1326 1104 1262 1174 Q1198 1244 1107 1284.5 Q1016 1325 903 1325 Q773 1325 665.5 1272 Q558 1219 477 1120 Q405 1030 363.5 915 Q322 800 322 678 Z M1349 1920 Q1337 1842 1307 1785 Q1277 1728 1234.5 1690.5 Q1192 1653 1139.5 1634.5 Q1087 1616 1031 1616 Q976 1616 930 1633.5 Q884 1651 851 1683 Q818 1715 799.5 1760 Q781 1805 781 1860 Q781 1891 787 1920 L904 1920 Q902 1910 901 1899.5 Q900 1889 900 1877 Q900 1847 908.5 1820.5 Q917 1794 935 1774 Q953 1754 980 1742.5 Q1007 1731 1045 1731 Q1085 1731 1116 1744.5 Q1147 1758 1169.5 1782.5 Q1192 1807 1207.5 1842 Q1223 1877 1232 1920 L1349 1920 Z " />
<glyph glyph-name="Ohungarumlaut" unicode="&#x150;" horiz-adv-x="1634" d="M127 664 Q127 740 140 815.5 Q153 891 178.5 964 Q204 1037 241.5 1104.5 Q279 1172 328 1231 Q379 1293 442.5 1343.5 Q506 1394 579.5 1430 Q653 1466 736.5 1485.5 Q820 1505 911 1505 Q1053 1505 1177 1457 Q1301 1409 1392.5 1319.5 Q1484 1230 1536.5 1103 Q1589 976 1589 819 Q1589 743 1576 667 Q1563 591 1538 518.5 Q1513 446 1475.5 378.5 Q1438 311 1389 252 Q1337 190 1273.5 139 Q1210 88 1136.5 52 Q1063 16 979.5 -3.5 Q896 -23 805 -23 Q663 -23 539 25.5 Q415 74 323.5 163 Q232 252 179.5 379 Q127 506 127 664 Z M322 678 Q322 569 356.5 474 Q391 379 454.5 309 Q518 239 609 198.5 Q700 158 813 158 Q943 158 1051 210.5 Q1159 263 1239 362 Q1311 452 1353 567.5 Q1395 683 1395 805 Q1395 914 1360.5 1009 Q1326 1104 1262 1174 Q1198 1244 1107 1284.5 Q1016 1325 903 1325 Q773 1325 665.5 1272 Q558 1219 477 1120 Q405 1030 363.5 915 Q322 800 322 678 Z M1258 1934 L1422 1934 L1152 1598 L1029 1598 L1258 1934 Z M976 1934 L1140 1934 L869 1598 L746 1598 L976 1934 Z " />
<glyph glyph-name="Oslash" unicode="&#xd8;" horiz-adv-x="1634" d="M1235 1202 Q1173 1259 1089 1292 Q1005 1325 903 1325 Q773 1325 665.5 1272 Q558 1219 477 1120 Q405 1030 363.5 915 Q322 800 322 678 Q322 594 341 519.5 Q360 445 397 383 L1235 1202 Z M256 244 Q194 327 160.5 433 Q127 539 127 664 Q127 740 140 815.5 Q153 891 178.5 964 Q204 1037 241.5 1104.5 Q279 1172 328 1231 Q379 1293 442.5 1343.5 Q506 1394 579.5 1430 Q653 1466 736.5 1485.5 Q820 1505 911 1505 Q1046 1505 1163.5 1462 Q1281 1419 1372 1337 L1552 1513 L1647 1421 L1460 1239 Q1522 1155 1555.5 1049.5 Q1589 944 1589 819 Q1589 743 1576 667 Q1563 591 1538 518.5 Q1513 446 1475.5 378.5 Q1438 311 1389 252 Q1337 190 1273.5 139 Q1210 88 1136.5 52 Q1063 16 979.5 -3.5 Q896 -23 805 -23 Q671 -23 553 20.5 Q435 64 344 145 L164 -31 L70 61 L256 244 Z M481 281 Q543 224 627 191 Q711 158 813 158 Q943 158 1051 210.5 Q1159 263 1239 362 Q1311 452 1353 567.5 Q1395 683 1395 805 Q1395 888 1375.5 963 Q1356 1038 1319 1100 L481 281 Z " />
<glyph glyph-name="Oslashacute" unicode="&#x1fe;" horiz-adv-x="1634" d="M1235 1202 Q1173 1259 1089 1292 Q1005 1325 903 1325 Q773 1325 665.5 1272 Q558 1219 477 1120 Q405 1030 363.5 915 Q322 800 322 678 Q322 594 341 519.5 Q360 445 397 383 L1235 1202 Z M256 244 Q194 327 160.5 433 Q127 539 127 664 Q127 740 140 815.5 Q153 891 178.5 964 Q204 1037 241.5 1104.5 Q279 1172 328 1231 Q379 1293 442.5 1343.5 Q506 1394 579.5 1430 Q653 1466 736.5 1485.5 Q820 1505 911 1505 Q1046 1505 1163.5 1462 Q1281 1419 1372 1337 L1552 1513 L1647 1421 L1460 1239 Q1522 1155 1555.5 1049.5 Q1589 944 1589 819 Q1589 743 1576 667 Q1563 591 1538 518.5 Q1513 446 1475.5 378.5 Q1438 311 1389 252 Q1337 190 1273.5 139 Q1210 88 1136.5 52 Q1063 16 979.5 -3.5 Q896 -23 805 -23 Q671 -23 553 20.5 Q435 64 344 145 L164 -31 L70 61 L256 244 Z M481 281 Q543 224 627 191 Q711 158 813 158 Q943 158 1051 210.5 Q1159 263 1239 362 Q1311 452 1353 567.5 Q1395 683 1395 805 Q1395 888 1375.5 963 Q1356 1038 1319 1100 L481 281 Z M1019 1598 L877 1598 L1095 1934 L1303 1934 L1019 1598 Z " />
<glyph glyph-name="OE" unicode="&#x152;" horiz-adv-x="1843" d="M868 0 Q700 0 563 47.5 Q426 95 329.5 182 Q233 269 180 391.5 Q127 514 127 664 Q127 739 141 815.5 Q155 892 184.5 966.5 Q214 1041 258.5 1110.5 Q303 1180 365 1241 Q479 1356 637 1419.5 Q795 1483 987 1483 L1903 1483 L1872 1307 L1262 1307 L1180 848 L1704 848 L1673 678 L1149 678 L1061 176 L1690 176 L1659 0 L868 0 Z M973 1307 Q821 1307 699 1256.5 Q577 1206 489 1110 Q409 1022 365.5 909.5 Q322 797 322 676 Q322 571 357 480.5 Q392 390 461 323 Q530 256 631.5 216.5 Q733 177 866 176 L1067 1307 L973 1307 Z " />
<glyph glyph-name="Racute" unicode="&#x154;" horiz-adv-x="1272" d="M647 623 L381 623 L270 0 L76 0 L338 1483 L733 1483 Q866 1483 964 1455.5 Q1062 1428 1130 1366 Q1186 1316 1218.5 1244 Q1251 1172 1251 1085 Q1251 1043 1242.5 999.5 Q1234 956 1216.5 913 Q1199 870 1172 830 Q1145 790 1108 756 Q1062 712 996.5 681 Q931 650 846 635 L1149 0 L934 0 L647 623 Z M700 788 Q788 788 857 809 Q926 830 977 877 Q1014 911 1035.5 959 Q1057 1007 1057 1067 Q1057 1177 977 1239 Q935 1273 872.5 1290 Q810 1307 713 1307 L502 1307 L410 788 L700 788 Z M800 1598 L658 1598 L876 1934 L1084 1934 L800 1598 Z " />
<glyph glyph-name="Rcaron" unicode="&#x158;" horiz-adv-x="1272" d="M647 623 L381 623 L270 0 L76 0 L338 1483 L733 1483 Q866 1483 964 1455.5 Q1062 1428 1130 1366 Q1186 1316 1218.5 1244 Q1251 1172 1251 1085 Q1251 1043 1242.5 999.5 Q1234 956 1216.5 913 Q1199 870 1172 830 Q1145 790 1108 756 Q1062 712 996.5 681 Q931 650 846 635 L1149 0 L934 0 L647 623 Z M700 788 Q788 788 857 809 Q926 830 977 877 Q1014 911 1035.5 959 Q1057 1007 1057 1067 Q1057 1177 977 1239 Q935 1273 872.5 1290 Q810 1307 713 1307 L502 1307 L410 788 L700 788 Z M1179 1926 L794 1578 L785 1578 L519 1926 L689 1926 L814 1776 L988 1926 L1179 1926 Z " />
<glyph glyph-name="Rcommaaccent" unicode="&#x156;" horiz-adv-x="1272" d="M647 623 L381 623 L270 0 L76 0 L338 1483 L733 1483 Q866 1483 964 1455.5 Q1062 1428 1130 1366 Q1186 1316 1218.5 1244 Q1251 1172 1251 1085 Q1251 1043 1242.5 999.5 Q1234 956 1216.5 913 Q1199 870 1172 830 Q1145 790 1108 756 Q1062 712 996.5 681 Q931 650 846 635 L1149 0 L934 0 L647 623 Z M700 788 Q788 788 857 809 Q926 830 977 877 Q1014 911 1035.5 959 Q1057 1007 1057 1067 Q1057 1177 977 1239 Q935 1273 872.5 1290 Q810 1307 713 1307 L502 1307 L410 788 L700 788 Z M596 -111 L360 -557 L221 -557 L412 -111 L596 -111 Z " />
<glyph glyph-name="Sacute" unicode="&#x15a;" horiz-adv-x="1124" d="M102 346 Q147 304 199.5 269 Q252 234 309 209 Q366 184 425 170 Q484 156 541 156 Q604 156 661 173.5 Q718 191 756 223 Q796 257 819 307 Q842 357 842 414 Q842 468 820 506.5 Q798 545 759 575 Q720 605 667 629.5 Q614 654 553 680 Q484 709 422 741 Q360 773 313 815.5 Q266 858 238.5 916 Q211 974 211 1055 Q211 1148 248 1234 Q285 1320 362 1386 Q431 1443 517 1474 Q603 1505 707 1505 Q816 1505 925.5 1471 Q1035 1437 1124 1372 L1087 1167 Q1044 1203 995.5 1232.5 Q947 1262 896 1283 Q845 1304 792 1315.5 Q739 1327 688 1327 Q632 1327 582 1312 Q532 1297 494 1266 Q450 1232 428 1184.5 Q406 1137 406 1081 Q406 1031 425.5 996 Q445 961 482 933 Q519 905 572 880 Q625 855 692 827 Q765 796 828 762.5 Q891 729 937 684.5 Q983 640 1009.5 581.5 Q1036 523 1036 442 Q1036 336 991.5 242.5 Q947 149 866 84 Q797 30 710 3.5 Q623 -23 524 -23 Q462 -23 399.5 -12 Q337 -1 278 19 Q219 39 165 68 Q111 97 66 133 L102 346 Z M767 1598 L625 1598 L843 1934 L1051 1934 L767 1598 Z " />
<glyph glyph-name="Scircumflex" unicode="&#x15c;" horiz-adv-x="1124" d="M102 346 Q147 304 199.5 269 Q252 234 309 209 Q366 184 425 170 Q484 156 541 156 Q604 156 661 173.5 Q718 191 756 223 Q796 257 819 307 Q842 357 842 414 Q842 468 820 506.5 Q798 545 759 575 Q720 605 667 629.5 Q614 654 553 680 Q484 709 422 741 Q360 773 313 815.5 Q266 858 238.5 916 Q211 974 211 1055 Q211 1148 248 1234 Q285 1320 362 1386 Q431 1443 517 1474 Q603 1505 707 1505 Q816 1505 925.5 1471 Q1035 1437 1124 1372 L1087 1167 Q1044 1203 995.5 1232.5 Q947 1262 896 1283 Q845 1304 792 1315.5 Q739 1327 688 1327 Q632 1327 582 1312 Q532 1297 494 1266 Q450 1232 428 1184.5 Q406 1137 406 1081 Q406 1031 425.5 996 Q445 961 482 933 Q519 905 572 880 Q625 855 692 827 Q765 796 828 762.5 Q891 729 937 684.5 Q983 640 1009.5 581.5 Q1036 523 1036 442 Q1036 336 991.5 242.5 Q947 149 866 84 Q797 30 710 3.5 Q623 -23 524 -23 Q462 -23 399.5 -12 Q337 -1 278 19 Q219 39 165 68 Q111 97 66 133 L102 346 Z M431 1606 L816 1954 L824 1954 L1090 1606 L920 1606 L795 1756 L621 1606 L431 1606 Z " />
<glyph glyph-name="Scaron" unicode="&#x160;" horiz-adv-x="1124" d="M102 346 Q147 304 199.5 269 Q252 234 309 209 Q366 184 425 170 Q484 156 541 156 Q604 156 661 173.5 Q718 191 756 223 Q796 257 819 307 Q842 357 842 414 Q842 468 820 506.5 Q798 545 759 575 Q720 605 667 629.5 Q614 654 553 680 Q484 709 422 741 Q360 773 313 815.5 Q266 858 238.5 916 Q211 974 211 1055 Q211 1148 248 1234 Q285 1320 362 1386 Q431 1443 517 1474 Q603 1505 707 1505 Q816 1505 925.5 1471 Q1035 1437 1124 1372 L1087 1167 Q1044 1203 995.5 1232.5 Q947 1262 896 1283 Q845 1304 792 1315.5 Q739 1327 688 1327 Q632 1327 582 1312 Q532 1297 494 1266 Q450 1232 428 1184.5 Q406 1137 406 1081 Q406 1031 425.5 996 Q445 961 482 933 Q519 905 572 880 Q625 855 692 827 Q765 796 828 762.5 Q891 729 937 684.5 Q983 640 1009.5 581.5 Q1036 523 1036 442 Q1036 336 991.5 242.5 Q947 149 866 84 Q797 30 710 3.5 Q623 -23 524 -23 Q462 -23 399.5 -12 Q337 -1 278 19 Q219 39 165 68 Q111 97 66 133 L102 346 Z M1146 1926 L761 1578 L752 1578 L486 1926 L656 1926 L781 1776 L955 1926 L1146 1926 Z " />
<glyph glyph-name="Scedilla" unicode="&#x15e;" horiz-adv-x="1124" d="M1087 1167 Q1044 1203 995.5 1232.5 Q947 1262 896 1283 Q845 1304 792 1315.5 Q739 1327 688 1327 Q632 1327 582 1312 Q532 1297 494 1266 Q450 1232 428 1184.5 Q406 1137 406 1081 Q406 1031 425.5 996 Q445 961 482 933 Q519 905 572 880 Q625 855 692 827 Q765 796 828 762.5 Q891 729 937 684.5 Q983 640 1009.5 581.5 Q1036 523 1036 442 Q1036 336 991.5 242.5 Q947 149 866 84 Q804 34 721.5 7.5 Q639 -19 549 -23 L514 -92 Q545 -102 572.5 -117 Q600 -132 619.5 -152.5 Q639 -173 650.5 -200.5 Q662 -228 662 -262 Q662 -304 646 -339 Q630 -374 601 -399.5 Q572 -425 532.5 -439 Q493 -453 446 -453 Q400 -453 352.5 -438.5 Q305 -424 262 -395 L311 -297 Q337 -316 370.5 -332 Q404 -348 446 -348 Q464 -348 481 -344 Q498 -340 511.5 -331 Q525 -322 533 -308 Q541 -294 541 -274 Q541 -248 524 -229.5 Q507 -211 481.5 -198 Q456 -185 427.5 -177.5 Q399 -170 375 -166 L449 -18 Q342 -7 242.5 32 Q143 71 66 133 L102 346 Q147 304 199.5 269 Q252 234 309 209 Q366 184 425 170 Q484 156 541 156 Q604 156 661 173.5 Q718 191 756 223 Q796 257 819 307 Q842 357 842 414 Q842 468 820 506.5 Q798 545 759 575 Q720 605 667 629.5 Q614 654 553 680 Q484 709 422 741 Q360 773 313 815.5 Q266 858 238.5 916 Q211 974 211 1055 Q211 1148 248 1234 Q285 1320 362 1386 Q431 1443 517 1474 Q603 1505 707 1505 Q816 1505 925.5 1471 Q1035 1437 1124 1372 L1087 1167 Z " />
<glyph glyph-name="Scommaaccent" unicode="&#x218;" horiz-adv-x="1124" d="M102 346 Q147 304 199.5 269 Q252 234 309 209 Q366 184 425 170 Q484 156 541 156 Q604 156 661 173.5 Q718 191 756 223 Q796 257 819 307 Q842 357 842 414 Q842 468 820 506.5 Q798 545 759 575 Q720 605 667 629.5 Q614 654 553 680 Q484 709 422 741 Q360 773 313 815.5 Q266 858 238.5 916 Q211 974 211 1055 Q211 1148 248 1234 Q285 1320 362 1386 Q431 1443 517 1474 Q603 1505 707 1505 Q816 1505 925.5 1471 Q1035 1437 1124 1372 L1087 1167 Q1044 1203 995.5 1232.5 Q947 1262 896 1283 Q845 1304 792 1315.5 Q739 1327 688 1327 Q632 1327 582 1312 Q532 1297 494 1266 Q450 1232 428 1184.5 Q406 1137 406 1081 Q406 1031 425.5 996 Q445 961 482 933 Q519 905 572 880 Q625 855 692 827 Q765 796 828 762.5 Q891 729 937 684.5 Q983 640 1009.5 581.5 Q1036 523 1036 442 Q1036 336 991.5 242.5 Q947 149 866 84 Q797 30 710 3.5 Q623 -23 524 -23 Q462 -23 399.5 -12 Q337 -1 278 19 Q219 39 165 68 Q111 97 66 133 L102 346 Z M563 -111 L327 -557 L188 -557 L379 -111 L563 -111 Z " />
<glyph glyph-name="Tcaron" unicode="&#x164;" horiz-adv-x="1319" d="M705 1307 L217 1307 L248 1483 L1417 1483 L1386 1307 L899 1307 L670 0 L475 0 L705 1307 Z M1241 1926 L856 1578 L847 1578 L581 1926 L751 1926 L876 1776 L1050 1926 L1241 1926 Z " />
<glyph glyph-name="Tcommaaccent" unicode="&#x162;" horiz-adv-x="1319" d="M705 1307 L217 1307 L248 1483 L1417 1483 L1386 1307 L899 1307 L670 0 L633 0 L588 -92 Q619 -102 646 -117 Q673 -132 693 -152.5 Q713 -173 724 -200.5 Q735 -228 735 -262 Q735 -304 719 -339 Q703 -374 674.5 -399.5 Q646 -425 606.5 -439 Q567 -453 520 -453 Q474 -453 426.5 -438.5 Q379 -424 336 -395 L385 -297 Q411 -316 444.5 -332 Q478 -348 520 -348 Q538 -348 554.5 -344 Q571 -340 584.5 -331 Q598 -322 606 -308 Q614 -294 614 -274 Q614 -248 597 -229.5 Q580 -211 555 -198 Q530 -185 501.5 -177.5 Q473 -170 449 -166 L530 0 L475 0 L705 1307 Z " />
<glyph glyph-name="uni021A" unicode="&#x21a;" horiz-adv-x="1319" d="M705 1307 L217 1307 L248 1483 L1417 1483 L1386 1307 L899 1307 L670 0 L475 0 L705 1307 Z M658 -111 L422 -557 L283 -557 L474 -111 L658 -111 Z " />
<glyph glyph-name="Tbar" unicode="&#x166;" horiz-adv-x="1319" d="M356 811 L616 811 L705 1307 L217 1307 L248 1483 L1417 1483 L1386 1307 L899 1307 L811 811 L1075 811 L1047 651 L784 651 L670 0 L475 0 L590 651 L328 651 L356 811 Z " />
<glyph glyph-name="Ugrave" unicode="&#xd9;" horiz-adv-x="1470" d="M1356 676 Q1340 584 1321.5 512 Q1303 440 1281.5 382.5 Q1260 325 1234.5 280 Q1209 235 1178 197 Q1096 95 972 36 Q848 -23 682 -23 Q558 -23 461 11 Q364 45 296.5 108 Q229 171 193.5 261.5 Q158 352 158 465 Q158 511 164 569 Q170 627 184 711 L319 1483 L514 1483 L379 711 Q366 643 361 587.5 Q356 532 356 494 Q356 416 376 353.5 Q396 291 438 247.5 Q480 204 544 181 Q608 158 696 158 Q815 158 898.5 198 Q982 238 1036 309 Q1084 370 1115 461.5 Q1146 553 1169 688 L1309 1483 L1497 1483 L1356 676 Z M765 1934 L969 1934 L1068 1598 L931 1598 L765 1934 Z " />
<glyph glyph-name="Uacute" unicode="&#xda;" horiz-adv-x="1470" d="M1356 676 Q1340 584 1321.5 512 Q1303 440 1281.5 382.5 Q1260 325 1234.5 280 Q1209 235 1178 197 Q1096 95 972 36 Q848 -23 682 -23 Q558 -23 461 11 Q364 45 296.5 108 Q229 171 193.5 261.5 Q158 352 158 465 Q158 511 164 569 Q170 627 184 711 L319 1483 L514 1483 L379 711 Q366 643 361 587.5 Q356 532 356 494 Q356 416 376 353.5 Q396 291 438 247.5 Q480 204 544 181 Q608 158 696 158 Q815 158 898.5 198 Q982 238 1036 309 Q1084 370 1115 461.5 Q1146 553 1169 688 L1309 1483 L1497 1483 L1356 676 Z M941 1598 L799 1598 L1017 1934 L1225 1934 L941 1598 Z " />
<glyph glyph-name="Ucircumflex" unicode="&#xdb;" horiz-adv-x="1470" d="M1356 676 Q1340 584 1321.5 512 Q1303 440 1281.5 382.5 Q1260 325 1234.5 280 Q1209 235 1178 197 Q1096 95 972 36 Q848 -23 682 -23 Q558 -23 461 11 Q364 45 296.5 108 Q229 171 193.5 261.5 Q158 352 158 465 Q158 511 164 569 Q170 627 184 711 L319 1483 L514 1483 L379 711 Q366 643 361 587.5 Q356 532 356 494 Q356 416 376 353.5 Q396 291 438 247.5 Q480 204 544 181 Q608 158 696 158 Q815 158 898.5 198 Q982 238 1036 309 Q1084 370 1115 461.5 Q1146 553 1169 688 L1309 1483 L1497 1483 L1356 676 Z M605 1606 L990 1954 L998 1954 L1264 1606 L1094 1606 L969 1756 L795 1606 L605 1606 Z " />
<glyph glyph-name="Utilde" unicode="&#x168;" horiz-adv-x="1470" d="M1356 676 Q1340 584 1321.5 512 Q1303 440 1281.5 382.5 Q1260 325 1234.5 280 Q1209 235 1178 197 Q1096 95 972 36 Q848 -23 682 -23 Q558 -23 461 11 Q364 45 296.5 108 Q229 171 193.5 261.5 Q158 352 158 465 Q158 511 164 569 Q170 627 184 711 L319 1483 L514 1483 L379 711 Q366 643 361 587.5 Q356 532 356 494 Q356 416 376 353.5 Q396 291 438 247.5 Q480 204 544 181 Q608 158 696 158 Q815 158 898.5 198 Q982 238 1036 309 Q1084 370 1115 461.5 Q1146 553 1169 688 L1309 1483 L1497 1483 L1356 676 Z M1268 1721 Q1241 1690 1197.5 1667.5 Q1154 1645 1098 1645 Q1058 1645 1019.5 1660 Q981 1675 935 1698 Q894 1718 862 1729.5 Q830 1741 795 1741 Q768 1741 744 1732.5 Q720 1724 699.5 1709.5 Q679 1695 662 1677 Q645 1659 632 1641 L627 1643 L658 1817 Q686 1848 729 1870.5 Q772 1893 828 1893 Q868 1893 907 1878 Q946 1863 992 1840 Q1032 1820 1064 1808.5 Q1096 1797 1131 1797 Q1159 1797 1183 1805.5 Q1207 1814 1227 1828.5 Q1247 1843 1264 1861 Q1281 1879 1295 1897 L1299 1895 L1268 1721 Z " />
<glyph glyph-name="Udieresis" unicode="&#xdc;" horiz-adv-x="1470" d="M1356 676 Q1340 584 1321.5 512 Q1303 440 1281.5 382.5 Q1260 325 1234.5 280 Q1209 235 1178 197 Q1096 95 972 36 Q848 -23 682 -23 Q558 -23 461 11 Q364 45 296.5 108 Q229 171 193.5 261.5 Q158 352 158 465 Q158 511 164 569 Q170 627 184 711 L319 1483 L514 1483 L379 711 Q366 643 361 587.5 Q356 532 356 494 Q356 416 376 353.5 Q396 291 438 247.5 Q480 204 544 181 Q608 158 696 158 Q815 158 898.5 198 Q982 238 1036 309 Q1084 370 1115 461.5 Q1146 553 1169 688 L1309 1483 L1497 1483 L1356 676 Z M1156 1653 Q1133 1653 1113 1661.5 Q1093 1670 1078.5 1684 Q1064 1698 1055.5 1717.5 Q1047 1737 1047 1760 Q1047 1785 1057 1807 Q1067 1829 1083.5 1845 Q1100 1861 1122.5 1870 Q1145 1879 1170 1879 Q1193 1879 1213 1870.5 Q1233 1862 1247.5 1847.5 Q1262 1833 1270.5 1813.5 Q1279 1794 1279 1772 Q1279 1747 1269 1725 Q1259 1703 1242.5 1687 Q1226 1671 1203.5 1662 Q1181 1653 1156 1653 Z M759 1653 Q736 1653 716 1661.5 Q696 1670 681.5 1684 Q667 1698 658.5 1717.5 Q650 1737 650 1760 Q650 1785 659.5 1807 Q669 1829 686 1845 Q703 1861 725 1870 Q747 1879 773 1879 Q796 1879 815.5 1870.5 Q835 1862 849.5 1847.5 Q864 1833 872.5 1813.5 Q881 1794 881 1772 Q881 1747 871.5 1725 Q862 1703 845.5 1687 Q829 1671 806.5 1662 Q784 1653 759 1653 Z " />
<glyph glyph-name="Umacron" unicode="&#x16a;" horiz-adv-x="1470" d="M1356 676 Q1340 584 1321.5 512 Q1303 440 1281.5 382.5 Q1260 325 1234.5 280 Q1209 235 1178 197 Q1096 95 972 36 Q848 -23 682 -23 Q558 -23 461 11 Q364 45 296.5 108 Q229 171 193.5 261.5 Q158 352 158 465 Q158 511 164 569 Q170 627 184 711 L319 1483 L514 1483 L379 711 Q366 643 361 587.5 Q356 532 356 494 Q356 416 376 353.5 Q396 291 438 247.5 Q480 204 544 181 Q608 158 696 158 Q815 158 898.5 198 Q982 238 1036 309 Q1084 370 1115 461.5 Q1146 553 1169 688 L1309 1483 L1497 1483 L1356 676 Z M695 1836 L1254 1836 L1230 1696 L670 1696 L695 1836 Z " />
<glyph glyph-name="Ubreve" unicode="&#x16c;" horiz-adv-x="1470" d="M1356 676 Q1340 584 1321.5 512 Q1303 440 1281.5 382.5 Q1260 325 1234.5 280 Q1209 235 1178 197 Q1096 95 972 36 Q848 -23 682 -23 Q558 -23 461 11 Q364 45 296.5 108 Q229 171 193.5 261.5 Q158 352 158 465 Q158 511 164 569 Q170 627 184 711 L319 1483 L514 1483 L379 711 Q366 643 361 587.5 Q356 532 356 494 Q356 416 376 353.5 Q396 291 438 247.5 Q480 204 544 181 Q608 158 696 158 Q815 158 898.5 198 Q982 238 1036 309 Q1084 370 1115 461.5 Q1146 553 1169 688 L1309 1483 L1497 1483 L1356 676 Z M1271 1920 Q1259 1842 1229 1785 Q1199 1728 1156.5 1690.5 Q1114 1653 1061.5 1634.5 Q1009 1616 953 1616 Q898 1616 852 1633.5 Q806 1651 773 1683 Q740 1715 721.5 1760 Q703 1805 703 1860 Q703 1891 709 1920 L826 1920 Q824 1910 823 1899.5 Q822 1889 822 1877 Q822 1847 830.5 1820.5 Q839 1794 857 1774 Q875 1754 902 1742.5 Q929 1731 967 1731 Q1007 1731 1038 1744.5 Q1069 1758 1091.5 1782.5 Q1114 1807 1129.5 1842 Q1145 1877 1154 1920 L1271 1920 Z " />
<glyph glyph-name="Uring" unicode="&#x16e;" horiz-adv-x="1470" d="M1356 676 Q1340 584 1321.5 512 Q1303 440 1281.5 382.5 Q1260 325 1234.5 280 Q1209 235 1178 197 Q1096 95 972 36 Q848 -23 682 -23 Q558 -23 461 11 Q364 45 296.5 108 Q229 171 193.5 261.5 Q158 352 158 465 Q158 511 164 569 Q170 627 184 711 L319 1483 L514 1483 L379 711 Q366 643 361 587.5 Q356 532 356 494 Q356 416 376 353.5 Q396 291 438 247.5 Q480 204 544 181 Q608 158 696 158 Q815 158 898.5 198 Q982 238 1036 309 Q1084 370 1115 461.5 Q1146 553 1169 688 L1309 1483 L1497 1483 L1356 676 Z M957 1573 Q911 1573 870.5 1588 Q830 1603 799.5 1631 Q769 1659 751.5 1698.5 Q734 1738 734 1786 Q734 1835 753 1881 Q772 1927 805 1962.5 Q838 1998 884 2019 Q930 2040 984 2040 Q1030 2040 1070.5 2025 Q1111 2010 1141.5 1982 Q1172 1954 1189.5 1914 Q1207 1874 1207 1825 Q1207 1776 1188 1730.5 Q1169 1685 1136 1650 Q1103 1615 1057 1594 Q1011 1573 957 1573 Z M961 1676 Q988 1676 1013 1686.5 Q1038 1697 1056.5 1716 Q1075 1735 1086.5 1761 Q1098 1787 1098 1819 Q1098 1841 1091 1862.5 Q1084 1884 1069.5 1901 Q1055 1918 1033 1928 Q1011 1938 980 1938 Q953 1938 928 1927 Q903 1916 884 1897 Q865 1878 853.5 1851 Q842 1824 842 1793 Q842 1771 849 1750 Q856 1729 870.5 1712.5 Q885 1696 907.5 1686 Q930 1676 961 1676 Z " />
<glyph glyph-name="Uhungarumlaut" unicode="&#x170;" horiz-adv-x="1470" d="M1356 676 Q1340 584 1321.5 512 Q1303 440 1281.5 382.5 Q1260 325 1234.5 280 Q1209 235 1178 197 Q1096 95 972 36 Q848 -23 682 -23 Q558 -23 461 11 Q364 45 296.5 108 Q229 171 193.5 261.5 Q158 352 158 465 Q158 511 164 569 Q170 627 184 711 L319 1483 L514 1483 L379 711 Q366 643 361 587.5 Q356 532 356 494 Q356 416 376 353.5 Q396 291 438 247.5 Q480 204 544 181 Q608 158 696 158 Q815 158 898.5 198 Q982 238 1036 309 Q1084 370 1115 461.5 Q1146 553 1169 688 L1309 1483 L1497 1483 L1356 676 Z M1180 1934 L1344 1934 L1074 1598 L951 1598 L1180 1934 Z M898 1934 L1062 1934 L791 1598 L668 1598 L898 1934 Z " />
<glyph glyph-name="Uogonek" unicode="&#x172;" horiz-adv-x="1470" d="M606 -18 Q501 -9 418 28.5 Q335 66 277 128 Q219 190 188.5 275 Q158 360 158 465 Q158 511 164 569 Q170 627 184 711 L319 1483 L514 1483 L379 711 Q366 643 361 587.5 Q356 532 356 494 Q356 416 376 353.5 Q396 291 438 247.5 Q480 204 544 181 Q608 158 696 158 Q815 158 898.5 198 Q982 238 1036 309 Q1084 370 1115 461.5 Q1146 553 1169 688 L1309 1483 L1497 1483 L1356 676 Q1340 584 1321.5 512 Q1303 440 1281.5 382.5 Q1260 325 1234.5 280 Q1209 235 1178 197 Q1112 113 1018.5 59 Q925 5 803 -12 Q769 -35 736.5 -63.5 Q704 -92 678.5 -123.5 Q653 -155 637 -189.5 Q621 -224 621 -260 Q621 -300 648 -324 Q675 -348 729 -348 Q743 -348 760 -346.5 Q777 -345 791 -342 L768 -467 Q754 -469 736 -471 Q718 -473 696 -473 Q652 -473 610 -462 Q568 -451 535.5 -428 Q503 -405 483 -369.5 Q463 -334 463 -285 Q463 -247 474 -211 Q485 -175 504.5 -141.5 Q524 -108 550.5 -78 Q577 -48 608 -23 L606 -18 Z " />
<glyph glyph-name="Wgrave" unicode="&#x1e80;" horiz-adv-x="2077" d="M526 778 Q543 693 559.5 607.5 Q576 522 592 440 L596 440 Q618 480 642.5 524 Q667 568 692.5 612.5 Q718 657 743 701 Q768 745 791 786 L1214 1534 L1219 1534 L1378 784 Q1397 698 1415 611 Q1433 524 1450 440 L1454 440 Q1498 523 1541 601.5 Q1584 680 1634 772 L2025 1483 L2238 1483 L1382 -51 L1378 -51 L1202 735 Q1185 813 1168.5 888.5 Q1152 964 1137 1038 L1133 1038 Q1092 967 1048.5 889.5 Q1005 812 963 739 L506 -51 L502 -51 L184 1483 L387 1483 L526 778 Z M1060 1934 L1264 1934 L1363 1598 L1226 1598 L1060 1934 Z " />
<glyph glyph-name="Wacute" unicode="&#x1e82;" horiz-adv-x="2077" d="M526 778 Q543 693 559.5 607.5 Q576 522 592 440 L596 440 Q618 480 642.5 524 Q667 568 692.5 612.5 Q718 657 743 701 Q768 745 791 786 L1214 1534 L1219 1534 L1378 784 Q1397 698 1415 611 Q1433 524 1450 440 L1454 440 Q1498 523 1541 601.5 Q1584 680 1634 772 L2025 1483 L2238 1483 L1382 -51 L1378 -51 L1202 735 Q1185 813 1168.5 888.5 Q1152 964 1137 1038 L1133 1038 Q1092 967 1048.5 889.5 Q1005 812 963 739 L506 -51 L502 -51 L184 1483 L387 1483 L526 778 Z M1236 1598 L1094 1598 L1312 1934 L1520 1934 L1236 1598 Z " />
<glyph glyph-name="Wcircumflex" unicode="&#x174;" horiz-adv-x="2077" d="M526 778 Q543 693 559.5 607.5 Q576 522 592 440 L596 440 Q618 480 642.5 524 Q667 568 692.5 612.5 Q718 657 743 701 Q768 745 791 786 L1214 1534 L1219 1534 L1378 784 Q1397 698 1415 611 Q1433 524 1450 440 L1454 440 Q1498 523 1541 601.5 Q1584 680 1634 772 L2025 1483 L2238 1483 L1382 -51 L1378 -51 L1202 735 Q1185 813 1168.5 888.5 Q1152 964 1137 1038 L1133 1038 Q1092 967 1048.5 889.5 Q1005 812 963 739 L506 -51 L502 -51 L184 1483 L387 1483 L526 778 Z M900 1606 L1285 1954 L1293 1954 L1559 1606 L1389 1606 L1264 1756 L1090 1606 L900 1606 Z " />
<glyph glyph-name="Wdieresis" unicode="&#x1e84;" horiz-adv-x="2077" d="M526 778 Q543 693 559.5 607.5 Q576 522 592 440 L596 440 Q618 480 642.5 524 Q667 568 692.5 612.5 Q718 657 743 701 Q768 745 791 786 L1214 1534 L1219 1534 L1378 784 Q1397 698 1415 611 Q1433 524 1450 440 L1454 440 Q1498 523 1541 601.5 Q1584 680 1634 772 L2025 1483 L2238 1483 L1382 -51 L1378 -51 L1202 735 Q1185 813 1168.5 888.5 Q1152 964 1137 1038 L1133 1038 Q1092 967 1048.5 889.5 Q1005 812 963 739 L506 -51 L502 -51 L184 1483 L387 1483 L526 778 Z M1451 1653 Q1428 1653 1408 1661.5 Q1388 1670 1373.5 1684 Q1359 1698 1350.5 1717.5 Q1342 1737 1342 1760 Q1342 1785 1352 1807 Q1362 1829 1378.5 1845 Q1395 1861 1417.5 1870 Q1440 1879 1465 1879 Q1488 1879 1508 1870.5 Q1528 1862 1542.5 1847.5 Q1557 1833 1565.5 1813.5 Q1574 1794 1574 1772 Q1574 1747 1564 1725 Q1554 1703 1537.5 1687 Q1521 1671 1498.5 1662 Q1476 1653 1451 1653 Z M1054 1653 Q1031 1653 1011 1661.5 Q991 1670 976.5 1684 Q962 1698 953.5 1717.5 Q945 1737 945 1760 Q945 1785 954.5 1807 Q964 1829 981 1845 Q998 1861 1020 1870 Q1042 1879 1068 1879 Q1091 1879 1110.5 1870.5 Q1130 1862 1144.5 1847.5 Q1159 1833 1167.5 1813.5 Q1176 1794 1176 1772 Q1176 1747 1166.5 1725 Q1157 1703 1140.5 1687 Q1124 1671 1101.5 1662 Q1079 1653 1054 1653 Z " />
<glyph glyph-name="Ygrave" unicode="&#x1ef2;" horiz-adv-x="1323" d="M596 662 L180 1483 L397 1483 L578 1118 Q619 1034 652.5 965 Q686 896 717 831 L721 831 Q774 897 833.5 969 Q893 1041 958 1118 L1264 1483 L1489 1483 L791 664 L674 0 L479 0 L596 662 Z M694 1934 L898 1934 L997 1598 L860 1598 L694 1934 Z " />
<glyph glyph-name="Yacute" unicode="&#xdd;" horiz-adv-x="1323" d="M596 662 L180 1483 L397 1483 L578 1118 Q619 1034 652.5 965 Q686 896 717 831 L721 831 Q774 897 833.5 969 Q893 1041 958 1118 L1264 1483 L1489 1483 L791 664 L674 0 L479 0 L596 662 Z M870 1598 L728 1598 L946 1934 L1154 1934 L870 1598 Z " />
<glyph glyph-name="Ycircumflex" unicode="&#x176;" horiz-adv-x="1323" d="M596 662 L180 1483 L397 1483 L578 1118 Q619 1034 652.5 965 Q686 896 717 831 L721 831 Q774 897 833.5 969 Q893 1041 958 1118 L1264 1483 L1489 1483 L791 664 L674 0 L479 0 L596 662 Z M534 1606 L919 1954 L927 1954 L1193 1606 L1023 1606 L898 1756 L724 1606 L534 1606 Z " />
<glyph glyph-name="Ydieresis" unicode="&#x178;" horiz-adv-x="1323" d="M596 662 L180 1483 L397 1483 L578 1118 Q619 1034 652.5 965 Q686 896 717 831 L721 831 Q774 897 833.5 969 Q893 1041 958 1118 L1264 1483 L1489 1483 L791 664 L674 0 L479 0 L596 662 Z M1085 1653 Q1062 1653 1042 1661.5 Q1022 1670 1007.5 1684 Q993 1698 984.5 1717.5 Q976 1737 976 1760 Q976 1785 986 1807 Q996 1829 1012.5 1845 Q1029 1861 1051.5 1870 Q1074 1879 1099 1879 Q1122 1879 1142 1870.5 Q1162 1862 1176.5 1847.5 Q1191 1833 1199.5 1813.5 Q1208 1794 1208 1772 Q1208 1747 1198 1725 Q1188 1703 1171.5 1687 Q1155 1671 1132.5 1662 Q1110 1653 1085 1653 Z M688 1653 Q665 1653 645 1661.5 Q625 1670 610.5 1684 Q596 1698 587.5 1717.5 Q579 1737 579 1760 Q579 1785 588.5 1807 Q598 1829 615 1845 Q632 1861 654 1870 Q676 1879 702 1879 Q725 1879 744.5 1870.5 Q764 1862 778.5 1847.5 Q793 1833 801.5 1813.5 Q810 1794 810 1772 Q810 1747 800.5 1725 Q791 1703 774.5 1687 Q758 1671 735.5 1662 Q713 1653 688 1653 Z " />
<glyph glyph-name="Zacute" unicode="&#x179;" horiz-adv-x="1208" d="M-57 4 L965 1303 L963 1307 L221 1307 L252 1483 L1337 1483 L1339 1479 L317 180 L319 176 L1098 176 L1067 0 L-55 0 L-57 4 Z M814 1598 L672 1598 L890 1934 L1098 1934 L814 1598 Z " />
<glyph glyph-name="Zcaron" unicode="&#x17d;" horiz-adv-x="1208" d="M-57 4 L965 1303 L963 1307 L221 1307 L252 1483 L1337 1483 L1339 1479 L317 180 L319 176 L1098 176 L1067 0 L-55 0 L-57 4 Z M1193 1926 L808 1578 L799 1578 L533 1926 L703 1926 L828 1776 L1002 1926 L1193 1926 Z " />
<glyph glyph-name="Zdotaccent" unicode="&#x17b;" horiz-adv-x="1208" d="M-57 4 L965 1303 L963 1307 L221 1307 L252 1483 L1337 1483 L1339 1479 L317 180 L319 176 L1098 176 L1067 0 L-55 0 L-57 4 Z M830 1653 Q807 1653 787.5 1661.5 Q768 1670 753.5 1684 Q739 1698 730.5 1717.5 Q722 1737 722 1760 Q722 1785 731.5 1807 Q741 1829 758 1845 Q775 1861 797 1870 Q819 1879 845 1879 Q868 1879 887.5 1870.5 Q907 1862 921.5 1847.5 Q936 1833 944.5 1813.5 Q953 1794 953 1772 Q953 1747 943.5 1725 Q934 1703 917 1687 Q900 1671 877.5 1662 Q855 1653 830 1653 Z " />
<glyph glyph-name="Eng" unicode="&#x14a;" horiz-adv-x="1561" d="M1296 -63 Q1287 -117 1275.5 -159.5 Q1264 -202 1249.5 -236 Q1235 -270 1218.5 -297 Q1202 -324 1184 -346 Q1128 -412 1052.5 -442.5 Q977 -473 889 -473 Q824 -473 763.5 -458.5 Q703 -444 653 -422 L686 -233 Q734 -258 787 -275.5 Q840 -293 891 -293 Q947 -293 983.5 -274.5 Q1020 -256 1044 -222 Q1068 -188 1082 -141.5 Q1096 -95 1106 -39 L1141 158 L668 803 Q614 877 562 948.5 Q510 1020 459 1092 L455 1090 Q442 1014 428.5 934.5 Q415 855 401 776 L264 0 L76 0 L346 1532 L350 1534 L977 680 Q1031 606 1083 534 Q1135 462 1186 391 L1190 393 Q1202 469 1215.5 548.5 Q1229 628 1243 707 L1380 1483 L1569 1483 L1296 -63 Z " />
<glyph glyph-name="Eth" unicode="&#xd0;" horiz-adv-x="1507" d="M76 836 L242 836 L356 1483 L719 1483 Q903 1483 1037 1434.5 Q1171 1386 1264 1303 Q1364 1213 1417 1090.5 Q1470 968 1470 819 Q1470 745 1456 668.5 Q1442 592 1413 517.5 Q1384 443 1340 372.5 Q1296 302 1235 242 Q1119 128 954.5 64 Q790 0 573 0 L94 0 L213 676 L47 676 L76 836 Z M588 176 Q681 176 759 190.5 Q837 205 901 231.5 Q965 258 1016.5 294 Q1068 330 1108 373 Q1149 416 1180.5 468 Q1212 520 1233 575.5 Q1254 631 1265 689.5 Q1276 748 1276 805 Q1276 856 1267 905.5 Q1258 955 1240 1001 Q1222 1047 1194 1088.5 Q1166 1130 1128 1165 Q1093 1197 1049 1223.5 Q1005 1250 951 1268.5 Q897 1287 833 1297 Q769 1307 694 1307 L520 1307 L436 836 L764 836 L735 676 L408 676 L319 176 L588 176 Z " />
<glyph glyph-name="Thorn" unicode="&#xde;" horiz-adv-x="1257" d="M338 1483 L532 1483 L481 1194 L680 1194 Q823 1194 926 1165 Q1029 1136 1100 1073 Q1160 1021 1194.5 947.5 Q1229 874 1229 784 Q1229 695 1191 603 Q1153 511 1073 438 Q1035 403 988.5 377 Q942 351 885.5 333 Q829 315 761 306 Q693 297 612 297 L324 297 L270 0 L76 0 L338 1483 Z M637 467 Q754 467 826.5 490 Q899 513 946 559 Q986 597 1010 651 Q1034 705 1034 768 Q1034 878 958 940 Q913 978 845.5 998 Q778 1018 676 1018 L451 1018 L354 467 L637 467 Z " />
<glyph glyph-name="a" unicode="a" horiz-adv-x="1192" d="M940 0 L756 0 L772 88 L768 90 Q741 68 710 47.5 Q679 27 643.5 11.5 Q608 -4 567.5 -13.5 Q527 -23 481 -23 Q399 -23 327.5 7.5 Q256 38 203.5 94.5 Q151 151 120.5 231 Q90 311 90 410 Q90 467 101 526.5 Q112 586 134 644 Q156 702 189.5 756.5 Q223 811 268 858 Q313 904 363.5 936.5 Q414 969 468.5 990 Q523 1011 579 1020.5 Q635 1030 690 1030 Q745 1030 798.5 1021 Q852 1012 903.5 997 Q955 982 1004.5 962 Q1054 942 1102 920 L940 0 Z M899 813 Q854 835 794.5 850.5 Q735 866 672 866 Q578 866 508.5 831 Q439 796 389 739 Q330 671 302 587.5 Q274 504 274 424 Q274 356 293 303 Q312 250 345 213.5 Q378 177 422.5 158 Q467 139 518 139 Q593 139 667.5 178 Q742 217 807 285 L899 813 Z " />
<glyph glyph-name="b" unicode="b" horiz-adv-x="1184" d="M426 946 Q474 980 542 1005 Q610 1030 690 1030 Q775 1030 849 998.5 Q923 967 977.5 910 Q1032 853 1063 772.5 Q1094 692 1094 594 Q1094 540 1083.5 482 Q1073 424 1051.5 367 Q1030 310 997 256 Q964 202 918 156 Q871 109 815.5 75 Q760 41 698 19.5 Q636 -2 569.5 -12.5 Q503 -23 434 -23 Q387 -23 339 -18.5 Q291 -14 244.5 -7 Q198 0 155 9.5 Q112 19 76 29 L348 1565 L532 1565 L422 948 L426 946 Z M283 162 Q328 151 370 145 Q412 139 459 139 Q575 139 657 175.5 Q739 212 793 270 Q818 298 839.5 333 Q861 368 876.5 408 Q892 448 900.5 491.5 Q909 535 909 580 Q909 646 890 698.5 Q871 751 836.5 788 Q802 825 754.5 844.5 Q707 864 649 864 Q586 864 518.5 840.5 Q451 817 391 772 L283 162 Z " />
<glyph glyph-name="c" unicode="c" horiz-adv-x="1022" d="M834 23 Q807 13 775 4.5 Q743 -4 708.5 -10 Q674 -16 638.5 -19.5 Q603 -23 569 -23 Q474 -23 387 5 Q300 33 234 89 Q168 145 129 229 Q90 313 90 424 Q90 480 101 541 Q112 602 136.5 662.5 Q161 723 199.5 780 Q238 837 293 885 Q373 954 473.5 992 Q574 1030 688 1030 Q767 1030 842 1012.5 Q917 995 977 967 L946 791 Q878 825 814 843.5 Q750 862 682 862 Q598 862 531.5 835 Q465 808 414 762 Q382 733 356.5 696 Q331 659 312.5 617 Q294 575 284 529.5 Q274 484 274 438 Q274 373 295 319 Q316 265 356 226.5 Q396 188 454.5 166.5 Q513 145 588 145 Q660 145 732 163.5 Q804 182 866 213 L834 23 Z " />
<glyph glyph-name="d" unicode="d" horiz-adv-x="1192" d="M768 90 Q740 66 709 45.5 Q678 25 643 10 Q608 -5 568 -14 Q528 -23 483 -23 Q399 -23 327 8 Q255 39 202.5 96 Q150 153 120 233.5 Q90 314 90 412 Q90 469 100.5 527.5 Q111 586 132 643.5 Q153 701 185 754.5 Q217 808 260 854 Q305 902 355 935.5 Q405 969 458.5 990 Q512 1011 567.5 1020.5 Q623 1030 678 1030 Q759 1030 821 1012.5 Q883 995 924 977 L928 979 L1032 1565 L1217 1565 L940 0 L756 0 L772 88 L768 90 Z M897 807 Q852 832 791.5 850 Q731 868 666 868 Q582 868 509.5 834 Q437 800 383 735 Q330 672 302 591 Q274 510 274 428 Q274 361 292.5 307.5 Q311 254 343.5 216.5 Q376 179 421 159 Q466 139 520 139 Q601 139 673.5 180 Q746 221 805 281 L897 807 Z " />
<glyph glyph-name="e" unicode="e" horiz-adv-x="1126" d="M272 449 Q273 373 297.5 315.5 Q322 258 365.5 220 Q409 182 468.5 162.5 Q528 143 598 143 Q643 143 688 150.5 Q733 158 774 170 Q815 182 852 197.5 Q889 213 918 229 L883 37 Q851 22 813.5 10.5 Q776 -1 737.5 -8.5 Q699 -16 660 -19.5 Q621 -23 586 -23 Q484 -23 393.5 5.5 Q303 34 235.5 91.5 Q168 149 129 235.5 Q90 322 90 438 Q90 550 127 656 Q164 762 233 844 Q275 894 324.5 929 Q374 964 426 986.5 Q478 1009 532 1019.5 Q586 1030 637 1030 Q727 1030 802.5 1001 Q878 972 933 919 Q988 866 1018.5 791.5 Q1049 717 1049 625 Q1049 583 1043 535 Q1037 487 1026 449 L272 449 Z M877 616 Q877 670 861.5 715.5 Q846 761 814.5 794 Q783 827 736.5 845.5 Q690 864 629 864 Q570 864 517.5 846 Q465 828 422 793.5 Q379 759 346.5 709.5 Q314 660 295 596 L877 596 L877 616 Z " />
<glyph glyph-name="f" unicode="f" horiz-adv-x="750" d="M289 842 L47 842 L45 846 L221 1008 L317 1008 L358 1241 Q375 1338 410 1400.5 Q445 1463 498 1505 Q553 1550 621 1568.5 Q689 1587 752 1587 Q804 1587 848.5 1578 Q893 1569 928 1556 L899 1391 Q864 1403 826.5 1411 Q789 1419 752 1419 Q707 1419 674 1408 Q641 1397 616 1378 Q603 1368 592 1355 Q581 1342 571.5 1323 Q562 1304 554 1277 Q546 1250 539 1212 L502 1008 L805 1008 L776 842 L473 842 L324 0 L139 0 L289 842 Z " />
<glyph glyph-name="g" unicode="g" horiz-adv-x="1176" d="M752 86 Q727 69 700.5 54 Q674 39 643.5 28 Q613 17 578 10.5 Q543 4 502 4 Q412 4 336.5 35 Q261 66 206 123 Q151 180 120.5 259 Q90 338 90 434 Q90 491 101.5 549.5 Q113 608 135 664 Q157 720 189 771 Q221 822 262 864 Q341 945 449 987.5 Q557 1030 682 1030 Q784 1030 888 1003 Q992 976 1087 930 L924 -2 Q901 -131 851.5 -220.5 Q802 -310 731.5 -366.5 Q661 -423 572 -448 Q483 -473 381 -473 Q290 -473 200.5 -453 Q111 -433 23 -385 L57 -193 Q90 -217 129.5 -237.5 Q169 -258 212 -273 Q255 -288 300.5 -296.5 Q346 -305 391 -305 Q452 -305 508 -288.5 Q564 -272 610 -236.5 Q656 -201 689 -145.5 Q722 -90 737 -12 L754 84 L752 86 Z M885 823 Q864 832 837.5 839.5 Q811 847 781.5 853 Q752 859 721.5 862.5 Q691 866 662 866 Q571 866 503 833 Q435 800 387 748 Q333 688 303.5 608.5 Q274 529 274 449 Q274 384 293 331.5 Q312 279 347 241.5 Q382 204 431 184 Q480 164 539 164 Q607 164 668.5 189 Q730 214 784 254 L885 823 Z " />
<glyph glyph-name="h" unicode="h" horiz-adv-x="1212" d="M350 1565 L535 1565 L414 885 L418 883 Q495 946 584 988 Q673 1030 776 1030 Q845 1030 901.5 1009 Q958 988 998 948 Q1038 908 1059.5 851 Q1081 794 1081 721 Q1081 695 1077.5 662 Q1074 629 1065 580 L963 0 L778 0 L879 567 Q887 609 890 637.5 Q893 666 893 688 Q893 727 883.5 758 Q874 789 854 811.5 Q834 834 801.5 846 Q769 858 723 858 Q678 858 634.5 846 Q591 834 549 813 Q507 792 465 763 Q423 734 381 700 L258 0 L74 0 L350 1565 Z " />
<glyph glyph-name="i" unicode="i" horiz-adv-x="510" d="M285 1348 Q285 1374 295 1396.5 Q305 1419 322 1436 Q339 1453 362.5 1463 Q386 1473 412 1473 Q436 1473 457 1464 Q478 1455 493.5 1439.5 Q509 1424 517.5 1403.5 Q526 1383 526 1360 Q526 1334 515.5 1311 Q505 1288 487.5 1271 Q470 1254 446.5 1244.5 Q423 1235 397 1235 Q373 1235 352.5 1244 Q332 1253 317 1268.5 Q302 1284 293.5 1304.5 Q285 1325 285 1348 Z M252 1008 L436 1008 L258 0 L74 0 L252 1008 Z " />
<glyph glyph-name="j" unicode="j" horiz-adv-x="516" d="M291 1348 Q291 1374 301 1396.5 Q311 1419 328 1436 Q345 1453 368.5 1463 Q392 1473 418 1473 Q442 1473 463 1464 Q484 1455 499.5 1439.5 Q515 1424 523.5 1403.5 Q532 1383 532 1360 Q532 1334 521.5 1311 Q511 1288 493.5 1271 Q476 1254 452.5 1244.5 Q429 1235 403 1235 Q379 1235 358.5 1244 Q338 1253 323 1268.5 Q308 1284 299.5 1304.5 Q291 1325 291 1348 Z M258 1008 L442 1008 L240 -143 Q232 -188 222 -223 Q212 -258 200 -286 Q188 -314 173.5 -335.5 Q159 -357 143 -375 Q94 -429 30.5 -451 Q-33 -473 -102 -473 Q-140 -473 -179 -467.5 Q-218 -462 -252 -451 L-223 -283 Q-195 -291 -163 -298 Q-131 -305 -102 -305 Q-62 -305 -34.5 -292 Q-7 -279 11.5 -255 Q30 -231 40.5 -197 Q51 -163 59 -121 L258 1008 Z " />
<glyph glyph-name="k" unicode="k" horiz-adv-x="1098" d="M350 1565 L535 1565 L362 592 L367 592 L909 1008 L1155 1008 L565 557 L971 0 L752 0 L358 545 L354 545 L258 0 L74 0 L350 1565 Z " />
<glyph glyph-name="l" unicode="l" horiz-adv-x="510" d="M350 1565 L535 1565 L258 0 L74 0 L350 1565 Z " />
<glyph glyph-name="m" unicode="m" horiz-adv-x="1880" d="M252 1008 L436 1008 L414 883 L418 881 Q452 911 492.5 938 Q533 965 578 985.5 Q623 1006 671 1018 Q719 1030 770 1030 Q820 1030 864 1017.5 Q908 1005 944 982 Q980 959 1006 925 Q1032 891 1047 848 Q1256 1030 1452 1030 Q1519 1030 1574 1009.5 Q1629 989 1668.5 951 Q1708 913 1729.5 858.5 Q1751 804 1751 735 Q1751 704 1747 668.5 Q1743 633 1735 590 L1630 0 L1446 0 L1548 578 Q1556 620 1559.5 648 Q1563 676 1563 696 Q1563 770 1523 814 Q1483 858 1399 858 Q1314 858 1230.5 814 Q1147 770 1063 694 Q1061 671 1057.5 643.5 Q1054 616 1049 590 L944 0 L760 0 L862 578 Q870 620 873.5 648 Q877 676 877 696 Q877 770 837 814 Q797 858 713 858 Q626 858 544 813.5 Q462 769 381 696 L258 0 L74 0 L252 1008 Z " />
<glyph glyph-name="n" unicode="n" horiz-adv-x="1212" d="M252 1008 L436 1008 L414 885 L418 883 Q456 914 498 940.5 Q540 967 585.5 987 Q631 1007 680 1018.5 Q729 1030 780 1030 Q847 1030 902 1009 Q957 988 997 948 Q1037 908 1059 851 Q1081 794 1081 721 Q1081 695 1077.5 662 Q1074 629 1065 580 L963 0 L778 0 L879 567 Q887 609 890 637.5 Q893 666 893 688 Q893 765 855 811.5 Q817 858 731 858 Q687 858 642 845.5 Q597 833 552.5 811.5 Q508 790 464.5 761 Q421 732 381 700 L258 0 L74 0 L252 1008 Z " />
<glyph glyph-name="o" unicode="o" horiz-adv-x="1212" d="M90 442 Q90 498 100.5 555.5 Q111 613 132 667.5 Q153 722 184 772.5 Q215 823 256 866 Q330 944 429 987 Q528 1030 647 1030 Q750 1030 837 997 Q924 964 987.5 903 Q1051 842 1086.5 756 Q1122 670 1122 565 Q1122 509 1111.5 452 Q1101 395 1080 340 Q1059 285 1028 234.5 Q997 184 956 141 Q882 64 783 20.5 Q684 -23 565 -23 Q462 -23 375 10.5 Q288 44 224.5 104.5 Q161 165 125.5 251 Q90 337 90 442 Z M274 455 Q274 390 294 333.5 Q314 277 353 235 Q392 193 448.5 169 Q505 145 578 145 Q652 145 713.5 172 Q775 199 823 250 Q850 278 871.5 313.5 Q893 349 907.5 388.5 Q922 428 930 469.5 Q938 511 938 553 Q938 618 918 674.5 Q898 731 859.5 772.5 Q821 814 764.5 838 Q708 862 635 862 Q561 862 499 835.5 Q437 809 389 758 Q362 729 340.5 694 Q319 659 304.5 619.5 Q290 580 282 538 Q274 496 274 455 Z " />
<glyph glyph-name="p" unicode="p" horiz-adv-x="1184" d="M430 946 Q484 984 546.5 1007 Q609 1030 684 1030 Q772 1030 847.5 997.5 Q923 965 977.5 905 Q1032 845 1063 761 Q1094 677 1094 575 Q1094 517 1083 458 Q1072 399 1051 343 Q1030 287 999 236 Q968 185 928 143 Q850 63 744.5 20 Q639 -23 512 -23 Q434 -23 372 -8.5 Q310 6 266 25 L262 23 L178 -451 L-6 -451 L252 1008 L436 1008 L426 948 L430 946 Z M293 193 Q338 171 397 155 Q456 139 524 139 Q609 139 678.5 170 Q748 201 799 258 Q854 320 881.5 401 Q909 482 909 563 Q909 634 890 690 Q871 746 836.5 784.5 Q802 823 753.5 843.5 Q705 864 647 864 Q579 864 512.5 839 Q446 814 395 774 L293 193 Z " />
<glyph glyph-name="q" unicode="q" horiz-adv-x="1196" d="M854 -451 L670 -451 L760 61 L756 63 Q705 25 640 1 Q575 -23 498 -23 Q412 -23 337.5 8.5 Q263 40 208 97.5 Q153 155 121.5 236 Q90 317 90 416 Q90 473 101.5 533.5 Q113 594 135.5 651.5 Q158 709 192 762.5 Q226 816 270 860 Q361 949 479 989.5 Q597 1030 725 1030 Q828 1030 922.5 1008 Q1017 986 1102 954 L854 -451 Z M897 834 Q852 849 803 858.5 Q754 868 700 868 Q597 868 520.5 833.5 Q444 799 393 743 Q366 714 344.5 677.5 Q323 641 307 600.5 Q291 560 282.5 516 Q274 472 274 428 Q274 361 293.5 308 Q313 255 347.5 218 Q382 181 429.5 161 Q477 141 532 141 Q595 141 664 167.5 Q733 194 793 244 L897 834 Z " />
<glyph glyph-name="r" unicode="r" horiz-adv-x="819" d="M252 1008 L436 1008 L406 836 L410 834 Q442 874 486 907.5 Q530 941 579 965 Q628 989 680 1002.5 Q732 1016 780 1016 Q812 1016 844 1010 L813 831 Q802 833 785.5 834.5 Q769 836 752 836 Q643 836 544.5 780 Q446 724 369 627 L258 0 L74 0 L252 1008 Z " />
<glyph glyph-name="s" unicode="s" horiz-adv-x="1004" d="M84 274 Q121 244 166.5 219 Q212 194 261.5 177 Q311 160 362.5 150.5 Q414 141 463 141 Q517 141 559 153 Q601 165 629 188 Q652 207 666 234.5 Q680 262 680 293 Q680 330 661 352 Q642 374 608.5 389 Q575 404 528.5 415 Q482 426 428 440 Q369 455 317.5 474.5 Q266 494 227 522.5 Q188 551 165.5 591.5 Q143 632 143 690 Q143 721 150 754.5 Q157 788 171 819.5 Q185 851 205.5 880.5 Q226 910 252 934 Q309 983 387.5 1006.5 Q466 1030 557 1030 Q650 1030 745.5 1007 Q841 984 920 938 L887 754 Q851 780 808.5 800.5 Q766 821 720.5 835 Q675 849 628 856.5 Q581 864 537 864 Q492 864 455.5 856 Q419 848 393 831 Q367 813 349.5 785 Q332 757 332 723 Q332 687 352.5 665.5 Q373 644 407.5 630 Q442 616 488.5 606.5 Q535 597 586 584 Q643 569 694.5 549.5 Q746 530 784.5 500.5 Q823 471 845.5 428.5 Q868 386 868 326 Q868 264 842.5 196.5 Q817 129 758 78 Q698 25 616.5 1 Q535 -23 442 -23 Q342 -23 239 2.5 Q136 28 51 84 L84 274 Z " />
<glyph glyph-name="t" unicode="t" horiz-adv-x="795" d="M649 8 Q615 -6 575 -14.5 Q535 -23 492 -23 Q426 -23 369 -4.5 Q312 14 270 50.5 Q228 87 204 142 Q180 197 180 270 Q180 298 183.5 339.5 Q187 381 195 424 L268 842 L68 842 L66 846 L520 1264 L524 1262 L479 1008 L825 1008 L797 842 L451 842 L377 426 Q369 383 365.5 353.5 Q362 324 362 299 Q362 230 401 187.5 Q440 145 524 145 Q565 145 605 155 Q645 165 680 180 L649 8 Z " />
<glyph glyph-name="u" unicode="u" horiz-adv-x="1200" d="M780 119 Q744 92 704.5 66.5 Q665 41 621.5 21 Q578 1 530.5 -11 Q483 -23 432 -23 Q367 -23 310 -2.5 Q253 18 211 56.5 Q169 95 145 151 Q121 207 121 279 Q121 309 125 350.5 Q129 392 137 438 L238 1008 L422 1008 L324 451 Q316 404 312.5 368.5 Q309 333 309 311 Q309 274 318.5 244 Q328 214 348 192.5 Q368 171 399.5 159 Q431 147 475 147 Q562 147 648 191.5 Q734 236 819 311 L942 1008 L1126 1008 L948 0 L764 0 L784 117 L780 119 Z " />
<glyph glyph-name="v" unicode="v" horiz-adv-x="1090" d="M451 -45 L446 -45 L113 1008 L307 1008 L430 598 Q450 532 470.5 462.5 Q491 393 508 334 L512 334 Q547 390 592 459 Q637 528 680 594 L952 1008 L1155 1008 L451 -45 Z " />
<glyph glyph-name="w" unicode="w" horiz-adv-x="1686" d="M416 596 Q430 539 444.5 476.5 Q459 414 473 354 L479 354 Q517 414 555.5 473 Q594 532 639 600 L936 1049 L940 1049 L1073 600 Q1092 538 1109 478 Q1126 418 1145 352 L1149 352 Q1186 415 1221.5 475.5 Q1257 536 1294 598 L1540 1008 L1743 1008 L1100 -45 L1096 -45 L946 446 Q929 502 912.5 559 Q896 616 881 670 L877 670 Q842 617 805 560.5 Q768 504 731 449 L401 -45 L397 -45 L121 1008 L315 1008 L416 596 Z " />
<glyph glyph-name="x" unicode="x" horiz-adv-x="1014" d="M397 537 L125 1008 L332 1008 L410 870 Q442 813 471.5 760 Q501 707 530 651 L535 651 Q583 707 631 761.5 Q679 816 731 874 L852 1008 L1067 1008 L631 539 L942 0 L731 0 L631 178 Q599 235 564 299 Q529 363 500 420 L496 420 Q448 366 392.5 305.5 Q337 245 285 188 L111 0 L-104 0 L397 537 Z " />
<glyph glyph-name="y" unicode="y" horiz-adv-x="1110" d="M18 -451 L393 115 L129 1008 L328 1008 L430 653 Q455 568 478.5 482 Q502 396 522 315 L526 315 Q577 399 630.5 485 Q684 571 739 657 L963 1008 L1163 1008 L225 -451 L18 -451 Z " />
<glyph glyph-name="z" unicode="z" horiz-adv-x="989" d="M-39 4 L664 836 L662 840 L164 840 L193 1008 L1028 1008 L1030 1004 L326 172 L328 168 L868 168 L840 0 L-37 0 L-39 4 Z " />
<glyph glyph-name="agrave" unicode="&#xe0;" horiz-adv-x="1192" d="M940 0 L756 0 L772 88 L768 90 Q741 68 710 47.5 Q679 27 643.5 11.5 Q608 -4 567.5 -13.5 Q527 -23 481 -23 Q399 -23 327.5 7.5 Q256 38 203.5 94.5 Q151 151 120.5 231 Q90 311 90 410 Q90 467 101 526.5 Q112 586 134 644 Q156 702 189.5 756.5 Q223 811 268 858 Q313 904 363.5 936.5 Q414 969 468.5 990 Q523 1011 579 1020.5 Q635 1030 690 1030 Q745 1030 798.5 1021 Q852 1012 903.5 997 Q955 982 1004.5 962 Q1054 942 1102 920 L940 0 Z M899 813 Q854 835 794.5 850.5 Q735 866 672 866 Q578 866 508.5 831 Q439 796 389 739 Q330 671 302 587.5 Q274 504 274 424 Q274 356 293 303 Q312 250 345 213.5 Q378 177 422.5 158 Q467 139 518 139 Q593 139 667.5 178 Q742 217 807 285 L899 813 Z M549 1489 L753 1489 L852 1153 L715 1153 L549 1489 Z " />
<glyph glyph-name="aacute" unicode="&#xe1;" horiz-adv-x="1192" d="M940 0 L756 0 L772 88 L768 90 Q741 68 710 47.5 Q679 27 643.5 11.5 Q608 -4 567.5 -13.5 Q527 -23 481 -23 Q399 -23 327.5 7.5 Q256 38 203.5 94.5 Q151 151 120.5 231 Q90 311 90 410 Q90 467 101 526.5 Q112 586 134 644 Q156 702 189.5 756.5 Q223 811 268 858 Q313 904 363.5 936.5 Q414 969 468.5 990 Q523 1011 579 1020.5 Q635 1030 690 1030 Q745 1030 798.5 1021 Q852 1012 903.5 997 Q955 982 1004.5 962 Q1054 942 1102 920 L940 0 Z M899 813 Q854 835 794.5 850.5 Q735 866 672 866 Q578 866 508.5 831 Q439 796 389 739 Q330 671 302 587.5 Q274 504 274 424 Q274 356 293 303 Q312 250 345 213.5 Q378 177 422.5 158 Q467 139 518 139 Q593 139 667.5 178 Q742 217 807 285 L899 813 Z M725 1153 L583 1153 L801 1489 L1009 1489 L725 1153 Z " />
<glyph glyph-name="acircumflex" unicode="&#xe2;" horiz-adv-x="1192" d="M940 0 L756 0 L772 88 L768 90 Q741 68 710 47.5 Q679 27 643.5 11.5 Q608 -4 567.5 -13.5 Q527 -23 481 -23 Q399 -23 327.5 7.5 Q256 38 203.5 94.5 Q151 151 120.5 231 Q90 311 90 410 Q90 467 101 526.5 Q112 586 134 644 Q156 702 189.5 756.5 Q223 811 268 858 Q313 904 363.5 936.5 Q414 969 468.5 990 Q523 1011 579 1020.5 Q635 1030 690 1030 Q745 1030 798.5 1021 Q852 1012 903.5 997 Q955 982 1004.5 962 Q1054 942 1102 920 L940 0 Z M899 813 Q854 835 794.5 850.5 Q735 866 672 866 Q578 866 508.5 831 Q439 796 389 739 Q330 671 302 587.5 Q274 504 274 424 Q274 356 293 303 Q312 250 345 213.5 Q378 177 422.5 158 Q467 139 518 139 Q593 139 667.5 178 Q742 217 807 285 L899 813 Z M389 1161 L774 1509 L782 1509 L1048 1161 L878 1161 L753 1311 L579 1161 L389 1161 Z " />
<glyph glyph-name="atilde" unicode="&#xe3;" horiz-adv-x="1192" d="M940 0 L756 0 L772 88 L768 90 Q741 68 710 47.5 Q679 27 643.5 11.5 Q608 -4 567.5 -13.5 Q527 -23 481 -23 Q399 -23 327.5 7.5 Q256 38 203.5 94.5 Q151 151 120.5 231 Q90 311 90 410 Q90 467 101 526.5 Q112 586 134 644 Q156 702 189.5 756.5 Q223 811 268 858 Q313 904 363.5 936.5 Q414 969 468.5 990 Q523 1011 579 1020.5 Q635 1030 690 1030 Q745 1030 798.5 1021 Q852 1012 903.5 997 Q955 982 1004.5 962 Q1054 942 1102 920 L940 0 Z M899 813 Q854 835 794.5 850.5 Q735 866 672 866 Q578 866 508.5 831 Q439 796 389 739 Q330 671 302 587.5 Q274 504 274 424 Q274 356 293 303 Q312 250 345 213.5 Q378 177 422.5 158 Q467 139 518 139 Q593 139 667.5 178 Q742 217 807 285 L899 813 Z M1052 1276 Q1025 1245 981.5 1222.5 Q938 1200 882 1200 Q842 1200 803.5 1215 Q765 1230 719 1253 Q678 1273 646 1284.5 Q614 1296 579 1296 Q552 1296 528 1287.5 Q504 1279 483.5 1264.5 Q463 1250 446 1232 Q429 1214 416 1196 L411 1198 L442 1372 Q470 1403 513 1425.5 Q556 1448 612 1448 Q652 1448 691 1433 Q730 1418 776 1395 Q816 1375 848 1363.5 Q880 1352 915 1352 Q943 1352 967 1360.5 Q991 1369 1011 1383.5 Q1031 1398 1048 1416 Q1065 1434 1079 1452 L1083 1450 L1052 1276 Z " />
<glyph glyph-name="adieresis" unicode="&#xe4;" horiz-adv-x="1192" d="M940 0 L756 0 L772 88 L768 90 Q741 68 710 47.5 Q679 27 643.5 11.5 Q608 -4 567.5 -13.5 Q527 -23 481 -23 Q399 -23 327.5 7.5 Q256 38 203.5 94.5 Q151 151 120.5 231 Q90 311 90 410 Q90 467 101 526.5 Q112 586 134 644 Q156 702 189.5 756.5 Q223 811 268 858 Q313 904 363.5 936.5 Q414 969 468.5 990 Q523 1011 579 1020.5 Q635 1030 690 1030 Q745 1030 798.5 1021 Q852 1012 903.5 997 Q955 982 1004.5 962 Q1054 942 1102 920 L940 0 Z M899 813 Q854 835 794.5 850.5 Q735 866 672 866 Q578 866 508.5 831 Q439 796 389 739 Q330 671 302 587.5 Q274 504 274 424 Q274 356 293 303 Q312 250 345 213.5 Q378 177 422.5 158 Q467 139 518 139 Q593 139 667.5 178 Q742 217 807 285 L899 813 Z M940 1208 Q917 1208 897 1216.5 Q877 1225 862.5 1239 Q848 1253 839.5 1272.5 Q831 1292 831 1315 Q831 1340 841 1362 Q851 1384 867.5 1400 Q884 1416 906.5 1425 Q929 1434 954 1434 Q977 1434 997 1425.5 Q1017 1417 1031.5 1402.5 Q1046 1388 1054.5 1368.5 Q1063 1349 1063 1327 Q1063 1302 1053 1280 Q1043 1258 1026.5 1242 Q1010 1226 987.5 1217 Q965 1208 940 1208 Z M543 1208 Q520 1208 500 1216.5 Q480 1225 465.5 1239 Q451 1253 442.5 1272.5 Q434 1292 434 1315 Q434 1340 443.5 1362 Q453 1384 470 1400 Q487 1416 509 1425 Q531 1434 557 1434 Q580 1434 599.5 1425.5 Q619 1417 633.5 1402.5 Q648 1388 656.5 1368.5 Q665 1349 665 1327 Q665 1302 655.5 1280 Q646 1258 629.5 1242 Q613 1226 590.5 1217 Q568 1208 543 1208 Z " />
<glyph glyph-name="amacron" unicode="&#x101;" horiz-adv-x="1192" d="M940 0 L756 0 L772 88 L768 90 Q741 68 710 47.5 Q679 27 643.5 11.5 Q608 -4 567.5 -13.5 Q527 -23 481 -23 Q399 -23 327.5 7.5 Q256 38 203.5 94.5 Q151 151 120.5 231 Q90 311 90 410 Q90 467 101 526.5 Q112 586 134 644 Q156 702 189.5 756.5 Q223 811 268 858 Q313 904 363.5 936.5 Q414 969 468.5 990 Q523 1011 579 1020.5 Q635 1030 690 1030 Q745 1030 798.5 1021 Q852 1012 903.5 997 Q955 982 1004.5 962 Q1054 942 1102 920 L940 0 Z M899 813 Q854 835 794.5 850.5 Q735 866 672 866 Q578 866 508.5 831 Q439 796 389 739 Q330 671 302 587.5 Q274 504 274 424 Q274 356 293 303 Q312 250 345 213.5 Q378 177 422.5 158 Q467 139 518 139 Q593 139 667.5 178 Q742 217 807 285 L899 813 Z M479 1391 L1038 1391 L1014 1251 L454 1251 L479 1391 Z " />
<glyph glyph-name="abreve" unicode="&#x103;" horiz-adv-x="1192" d="M940 0 L756 0 L772 88 L768 90 Q741 68 710 47.5 Q679 27 643.5 11.5 Q608 -4 567.5 -13.5 Q527 -23 481 -23 Q399 -23 327.5 7.5 Q256 38 203.5 94.5 Q151 151 120.5 231 Q90 311 90 410 Q90 467 101 526.5 Q112 586 134 644 Q156 702 189.5 756.5 Q223 811 268 858 Q313 904 363.5 936.5 Q414 969 468.5 990 Q523 1011 579 1020.5 Q635 1030 690 1030 Q745 1030 798.5 1021 Q852 1012 903.5 997 Q955 982 1004.5 962 Q1054 942 1102 920 L940 0 Z M899 813 Q854 835 794.5 850.5 Q735 866 672 866 Q578 866 508.5 831 Q439 796 389 739 Q330 671 302 587.5 Q274 504 274 424 Q274 356 293 303 Q312 250 345 213.5 Q378 177 422.5 158 Q467 139 518 139 Q593 139 667.5 178 Q742 217 807 285 L899 813 Z M1055 1475 Q1043 1397 1013 1340 Q983 1283 940.5 1245.5 Q898 1208 845.5 1189.5 Q793 1171 737 1171 Q682 1171 636 1188.5 Q590 1206 557 1238 Q524 1270 505.5 1315 Q487 1360 487 1415 Q487 1446 493 1475 L610 1475 Q608 1465 607 1454.5 Q606 1444 606 1432 Q606 1402 614.5 1375.5 Q623 1349 641 1329 Q659 1309 686 1297.5 Q713 1286 751 1286 Q791 1286 822 1299.5 Q853 1313 875.5 1337.5 Q898 1362 913.5 1397 Q929 1432 938 1475 L1055 1475 Z " />
<glyph glyph-name="aring" unicode="&#xe5;" horiz-adv-x="1192" d="M940 0 L756 0 L772 88 L768 90 Q741 68 710 47.5 Q679 27 643.5 11.5 Q608 -4 567.5 -13.5 Q527 -23 481 -23 Q399 -23 327.5 7.5 Q256 38 203.5 94.5 Q151 151 120.5 231 Q90 311 90 410 Q90 467 101 526.5 Q112 586 134 644 Q156 702 189.5 756.5 Q223 811 268 858 Q313 904 363.5 936.5 Q414 969 468.5 990 Q523 1011 579 1020.5 Q635 1030 690 1030 Q745 1030 798.5 1021 Q852 1012 903.5 997 Q955 982 1004.5 962 Q1054 942 1102 920 L940 0 Z M899 813 Q854 835 794.5 850.5 Q735 866 672 866 Q578 866 508.5 831 Q439 796 389 739 Q330 671 302 587.5 Q274 504 274 424 Q274 356 293 303 Q312 250 345 213.5 Q378 177 422.5 158 Q467 139 518 139 Q593 139 667.5 178 Q742 217 807 285 L899 813 Z M741 1128 Q695 1128 654.5 1143 Q614 1158 583.5 1186 Q553 1214 535.5 1253.5 Q518 1293 518 1341 Q518 1390 537 1436 Q556 1482 589 1517.5 Q622 1553 668 1574 Q714 1595 768 1595 Q814 1595 854.5 1580 Q895 1565 925.5 1537 Q956 1509 973.5 1469 Q991 1429 991 1380 Q991 1331 972 1285.5 Q953 1240 920 1205 Q887 1170 841 1149 Q795 1128 741 1128 Z M745 1231 Q772 1231 797 1241.5 Q822 1252 840.5 1271 Q859 1290 870.5 1316 Q882 1342 882 1374 Q882 1396 875 1417.5 Q868 1439 853.5 1456 Q839 1473 817 1483 Q795 1493 764 1493 Q737 1493 712 1482 Q687 1471 668 1452 Q649 1433 637.5 1406 Q626 1379 626 1348 Q626 1326 633 1305 Q640 1284 654.5 1267.5 Q669 1251 691.5 1241 Q714 1231 745 1231 Z " />
<glyph glyph-name="aogonek" unicode="&#x105;" horiz-adv-x="1192" d="M940 0 Q902 -21 862 -48.5 Q822 -76 789 -109.5 Q756 -143 734.5 -181 Q713 -219 713 -260 Q713 -300 739.5 -324 Q766 -348 821 -348 Q834 -348 849.5 -346.5 Q865 -345 879 -342 L858 -467 Q843 -469 825.5 -471 Q808 -473 788 -473 Q744 -473 702 -462 Q660 -451 627.5 -428 Q595 -405 575 -369.5 Q555 -334 555 -285 Q555 -240 571 -200 Q587 -160 614 -124 Q641 -88 677.5 -57 Q714 -26 756 0 L772 88 L768 90 Q741 68 710 47.5 Q679 27 643.5 11.5 Q608 -4 567.5 -13.5 Q527 -23 481 -23 Q399 -23 327.5 7.5 Q256 38 203.5 94.5 Q151 151 120.5 231 Q90 311 90 410 Q90 467 101 526.5 Q112 586 134 644 Q156 702 189.5 756.5 Q223 811 268 858 Q313 904 363.5 936.5 Q414 969 468.5 990 Q523 1011 579 1020.5 Q635 1030 690 1030 Q745 1030 798.5 1021 Q852 1012 903.5 997 Q955 982 1004.5 962 Q1054 942 1102 920 L940 0 Z M899 813 Q854 835 794.5 850.5 Q735 866 672 866 Q578 866 508.5 831 Q439 796 389 739 Q330 671 302 587.5 Q274 504 274 424 Q274 356 293 303 Q312 250 345 213.5 Q378 177 422.5 158 Q467 139 518 139 Q593 139 667.5 178 Q742 217 807 285 L899 813 Z " />
<glyph glyph-name="ae" unicode="&#xe6;" horiz-adv-x="1798" d="M958 449 Q959 373 984 315.5 Q1009 258 1052 220 Q1095 182 1153.5 162.5 Q1212 143 1280 143 Q1324 143 1367 150.5 Q1410 158 1450 170 Q1490 182 1525 197.5 Q1560 213 1589 229 L1554 37 Q1522 22 1486.5 10.5 Q1451 -1 1413.5 -8.5 Q1376 -16 1339 -19.5 Q1302 -23 1268 -23 Q1207 -23 1149 -12 Q1091 -1 1039 21.5 Q987 44 943 77.5 Q899 111 866 156 Q788 59 694.5 18 Q601 -23 506 -23 Q415 -23 339 8.5 Q263 40 207.5 98 Q152 156 121 237 Q90 318 90 416 Q90 470 100 528 Q110 586 131.5 643.5 Q153 701 186.5 755 Q220 809 266 856 Q357 948 476.5 989 Q596 1030 731 1030 Q815 1030 894.5 1017.5 Q974 1005 1034 989 L1018 903 L1020 901 Q1079 963 1156.5 996.5 Q1234 1030 1325 1030 Q1409 1030 1481 1001 Q1553 972 1606 918.5 Q1659 865 1689.5 790.5 Q1720 716 1720 625 Q1720 580 1713.5 533.5 Q1707 487 1698 449 L958 449 Z M850 854 Q819 860 784 864 Q749 868 709 868 Q603 868 524.5 836 Q446 804 389 741 Q336 683 305 601 Q274 519 274 432 Q274 367 293 313 Q312 259 346.5 221 Q381 183 429.5 162 Q478 141 537 141 Q612 141 679.5 177.5 Q747 214 801 295 Q793 326 788.5 359.5 Q784 393 784 430 Q784 488 795 543 L850 854 Z M1548 614 Q1548 666 1533.5 711.5 Q1519 757 1489.5 791 Q1460 825 1414.5 844.5 Q1369 864 1307 864 Q1246 864 1194.5 844.5 Q1143 825 1101.5 789.5 Q1060 754 1029.5 704.5 Q999 655 981 596 L1548 596 L1548 614 Z " />
<glyph glyph-name="aeacute" unicode="&#x1fd;" horiz-adv-x="1798" d="M958 449 Q959 373 984 315.5 Q1009 258 1052 220 Q1095 182 1153.5 162.5 Q1212 143 1280 143 Q1324 143 1367 150.5 Q1410 158 1450 170 Q1490 182 1525 197.5 Q1560 213 1589 229 L1554 37 Q1522 22 1486.5 10.5 Q1451 -1 1413.5 -8.5 Q1376 -16 1339 -19.5 Q1302 -23 1268 -23 Q1207 -23 1149 -12 Q1091 -1 1039 21.5 Q987 44 943 77.5 Q899 111 866 156 Q788 59 694.5 18 Q601 -23 506 -23 Q415 -23 339 8.5 Q263 40 207.5 98 Q152 156 121 237 Q90 318 90 416 Q90 470 100 528 Q110 586 131.5 643.5 Q153 701 186.5 755 Q220 809 266 856 Q357 948 476.5 989 Q596 1030 731 1030 Q815 1030 894.5 1017.5 Q974 1005 1034 989 L1018 903 L1020 901 Q1079 963 1156.5 996.5 Q1234 1030 1325 1030 Q1409 1030 1481 1001 Q1553 972 1606 918.5 Q1659 865 1689.5 790.5 Q1720 716 1720 625 Q1720 580 1713.5 533.5 Q1707 487 1698 449 L958 449 Z M850 854 Q819 860 784 864 Q749 868 709 868 Q603 868 524.5 836 Q446 804 389 741 Q336 683 305 601 Q274 519 274 432 Q274 367 293 313 Q312 259 346.5 221 Q381 183 429.5 162 Q478 141 537 141 Q612 141 679.5 177.5 Q747 214 801 295 Q793 326 788.5 359.5 Q784 393 784 430 Q784 488 795 543 L850 854 Z M1548 614 Q1548 666 1533.5 711.5 Q1519 757 1489.5 791 Q1460 825 1414.5 844.5 Q1369 864 1307 864 Q1246 864 1194.5 844.5 Q1143 825 1101.5 789.5 Q1060 754 1029.5 704.5 Q999 655 981 596 L1548 596 L1548 614 Z M1022 1153 L880 1153 L1098 1489 L1306 1489 L1022 1153 Z " />
<glyph glyph-name="cacute" unicode="&#x107;" horiz-adv-x="1022" d="M834 23 Q807 13 775 4.5 Q743 -4 708.5 -10 Q674 -16 638.5 -19.5 Q603 -23 569 -23 Q474 -23 387 5 Q300 33 234 89 Q168 145 129 229 Q90 313 90 424 Q90 480 101 541 Q112 602 136.5 662.5 Q161 723 199.5 780 Q238 837 293 885 Q373 954 473.5 992 Q574 1030 688 1030 Q767 1030 842 1012.5 Q917 995 977 967 L946 791 Q878 825 814 843.5 Q750 862 682 862 Q598 862 531.5 835 Q465 808 414 762 Q382 733 356.5 696 Q331 659 312.5 617 Q294 575 284 529.5 Q274 484 274 438 Q274 373 295 319 Q316 265 356 226.5 Q396 188 454.5 166.5 Q513 145 588 145 Q660 145 732 163.5 Q804 182 866 213 L834 23 Z M781 1153 L639 1153 L857 1489 L1065 1489 L781 1153 Z " />
<glyph glyph-name="ccircumflex" unicode="&#x109;" horiz-adv-x="1022" d="M834 23 Q807 13 775 4.5 Q743 -4 708.5 -10 Q674 -16 638.5 -19.5 Q603 -23 569 -23 Q474 -23 387 5 Q300 33 234 89 Q168 145 129 229 Q90 313 90 424 Q90 480 101 541 Q112 602 136.5 662.5 Q161 723 199.5 780 Q238 837 293 885 Q373 954 473.5 992 Q574 1030 688 1030 Q767 1030 842 1012.5 Q917 995 977 967 L946 791 Q878 825 814 843.5 Q750 862 682 862 Q598 862 531.5 835 Q465 808 414 762 Q382 733 356.5 696 Q331 659 312.5 617 Q294 575 284 529.5 Q274 484 274 438 Q274 373 295 319 Q316 265 356 226.5 Q396 188 454.5 166.5 Q513 145 588 145 Q660 145 732 163.5 Q804 182 866 213 L834 23 Z M371 1161 L756 1509 L764 1509 L1030 1161 L860 1161 L735 1311 L561 1161 L371 1161 Z " />
<glyph glyph-name="ccaron" unicode="&#x10d;" horiz-adv-x="1022" d="M834 23 Q807 13 775 4.5 Q743 -4 708.5 -10 Q674 -16 638.5 -19.5 Q603 -23 569 -23 Q474 -23 387 5 Q300 33 234 89 Q168 145 129 229 Q90 313 90 424 Q90 480 101 541 Q112 602 136.5 662.5 Q161 723 199.5 780 Q238 837 293 885 Q373 954 473.5 992 Q574 1030 688 1030 Q767 1030 842 1012.5 Q917 995 977 967 L946 791 Q878 825 814 843.5 Q750 862 682 862 Q598 862 531.5 835 Q465 808 414 762 Q382 733 356.5 696 Q331 659 312.5 617 Q294 575 284 529.5 Q274 484 274 438 Q274 373 295 319 Q316 265 356 226.5 Q396 188 454.5 166.5 Q513 145 588 145 Q660 145 732 163.5 Q804 182 866 213 L834 23 Z M1086 1481 L701 1133 L692 1133 L426 1481 L596 1481 L721 1331 L895 1481 L1086 1481 Z " />
<glyph glyph-name="cdotaccent" unicode="&#x10b;" horiz-adv-x="1022" d="M834 23 Q807 13 775 4.5 Q743 -4 708.5 -10 Q674 -16 638.5 -19.5 Q603 -23 569 -23 Q474 -23 387 5 Q300 33 234 89 Q168 145 129 229 Q90 313 90 424 Q90 480 101 541 Q112 602 136.5 662.5 Q161 723 199.5 780 Q238 837 293 885 Q373 954 473.5 992 Q574 1030 688 1030 Q767 1030 842 1012.5 Q917 995 977 967 L946 791 Q878 825 814 843.5 Q750 862 682 862 Q598 862 531.5 835 Q465 808 414 762 Q382 733 356.5 696 Q331 659 312.5 617 Q294 575 284 529.5 Q274 484 274 438 Q274 373 295 319 Q316 265 356 226.5 Q396 188 454.5 166.5 Q513 145 588 145 Q660 145 732 163.5 Q804 182 866 213 L834 23 Z M723 1208 Q700 1208 680.5 1216.5 Q661 1225 646.5 1239 Q632 1253 623.5 1272.5 Q615 1292 615 1315 Q615 1340 624.5 1362 Q634 1384 651 1400 Q668 1416 690 1425 Q712 1434 738 1434 Q761 1434 780.5 1425.5 Q800 1417 814.5 1402.5 Q829 1388 837.5 1368.5 Q846 1349 846 1327 Q846 1302 836.5 1280 Q827 1258 810 1242 Q793 1226 770.5 1217 Q748 1208 723 1208 Z " />
<glyph glyph-name="ccedilla" unicode="&#xe7;" horiz-adv-x="1022" d="M467 -14 Q389 -1 320 33 Q251 67 200 122 Q149 177 119.5 252.5 Q90 328 90 424 Q90 480 101 541 Q112 602 136.5 662.5 Q161 723 199.5 780 Q238 837 293 885 Q373 954 473.5 992 Q574 1030 688 1030 Q767 1030 842 1012.5 Q917 995 977 967 L946 791 Q878 825 814 843.5 Q750 862 682 862 Q598 862 531.5 835 Q465 808 414 762 Q382 733 356.5 696 Q331 659 312.5 617 Q294 575 284 529.5 Q274 484 274 438 Q274 373 295 319 Q316 265 356 226.5 Q396 188 454.5 166.5 Q513 145 588 145 Q660 145 732 163.5 Q804 182 866 213 L834 23 Q807 13 775 4.5 Q743 -4 708.5 -10 Q674 -16 638.5 -19.5 Q603 -23 569 -23 L563 -23 L528 -94 Q559 -104 586.5 -119 Q614 -134 633.5 -154.5 Q653 -175 664.5 -202.5 Q676 -230 676 -264 Q676 -306 660 -341 Q644 -376 615.5 -401.5 Q587 -427 547.5 -441 Q508 -455 461 -455 Q414 -455 367 -440.5 Q320 -426 276 -397 L326 -299 Q352 -318 385.5 -334 Q419 -350 461 -350 Q479 -350 495.5 -346 Q512 -342 525.5 -333 Q539 -324 547 -310 Q555 -296 555 -276 Q555 -250 538 -231.5 Q521 -213 496 -200 Q471 -187 442 -179.5 Q413 -172 389 -168 L467 -14 Z " />
<glyph glyph-name="dcaron" unicode="&#x10f;" horiz-adv-x="1423" d="M768 90 Q740 66 709 45.5 Q678 25 643 10 Q608 -5 568 -14 Q528 -23 483 -23 Q399 -23 327 8 Q255 39 202.5 96 Q150 153 120 233.5 Q90 314 90 412 Q90 469 100.5 527.5 Q111 586 132 643.5 Q153 701 185 754.5 Q217 808 260 854 Q305 902 355 935.5 Q405 969 458.5 990 Q512 1011 567.5 1020.5 Q623 1030 678 1030 Q759 1030 821 1012.5 Q883 995 924 977 L928 979 L1032 1565 L1217 1565 L940 0 L756 0 L772 88 L768 90 Z M897 807 Q852 832 791.5 850 Q731 868 666 868 Q582 868 509.5 834 Q437 800 383 735 Q330 672 302 591 Q274 510 274 428 Q274 361 292.5 307.5 Q311 254 343.5 216.5 Q376 179 421 159 Q466 139 520 139 Q601 139 673.5 180 Q746 221 805 281 L897 807 Z M1634 1564 L1398 1118 L1259 1118 L1450 1564 L1634 1564 Z " />
<glyph glyph-name="dcroat" unicode="&#x111;" horiz-adv-x="1192" d="M690 1352 L993 1352 L1032 1565 L1217 1565 L1178 1352 L1354 1352 L1327 1202 L1151 1202 L940 0 L756 0 L772 88 L768 90 Q740 66 709 45.5 Q678 25 643 10 Q608 -5 568 -14 Q528 -23 483 -23 Q399 -23 327 8 Q255 39 202.5 96 Q150 153 120 233.5 Q90 314 90 412 Q90 469 100.5 527.5 Q111 586 132 643.5 Q153 701 185 754.5 Q217 808 260 854 Q305 902 355 935.5 Q405 969 458.5 990 Q512 1011 567.5 1020.5 Q623 1030 678 1030 Q759 1030 821 1012.5 Q883 995 924 977 L928 979 L967 1202 L664 1202 L690 1352 Z M897 807 Q852 832 791.5 850 Q731 868 666 868 Q582 868 509.5 834 Q437 800 383 735 Q330 672 302 591 Q274 510 274 428 Q274 361 292.5 307.5 Q311 254 343.5 216.5 Q376 179 421 159 Q466 139 520 139 Q601 139 673.5 180 Q746 221 805 281 L897 807 Z " />
<glyph glyph-name="egrave" unicode="&#xe8;" horiz-adv-x="1126" d="M272 449 Q273 373 297.5 315.5 Q322 258 365.5 220 Q409 182 468.5 162.5 Q528 143 598 143 Q643 143 688 150.5 Q733 158 774 170 Q815 182 852 197.5 Q889 213 918 229 L883 37 Q851 22 813.5 10.5 Q776 -1 737.5 -8.5 Q699 -16 660 -19.5 Q621 -23 586 -23 Q484 -23 393.5 5.5 Q303 34 235.5 91.5 Q168 149 129 235.5 Q90 322 90 438 Q90 550 127 656 Q164 762 233 844 Q275 894 324.5 929 Q374 964 426 986.5 Q478 1009 532 1019.5 Q586 1030 637 1030 Q727 1030 802.5 1001 Q878 972 933 919 Q988 866 1018.5 791.5 Q1049 717 1049 625 Q1049 583 1043 535 Q1037 487 1026 449 L272 449 Z M877 616 Q877 670 861.5 715.5 Q846 761 814.5 794 Q783 827 736.5 845.5 Q690 864 629 864 Q570 864 517.5 846 Q465 828 422 793.5 Q379 759 346.5 709.5 Q314 660 295 596 L877 596 L877 616 Z M518 1489 L722 1489 L821 1153 L684 1153 L518 1489 Z " />
<glyph glyph-name="eacute" unicode="&#xe9;" horiz-adv-x="1126" d="M272 449 Q273 373 297.5 315.5 Q322 258 365.5 220 Q409 182 468.5 162.5 Q528 143 598 143 Q643 143 688 150.5 Q733 158 774 170 Q815 182 852 197.5 Q889 213 918 229 L883 37 Q851 22 813.5 10.5 Q776 -1 737.5 -8.5 Q699 -16 660 -19.5 Q621 -23 586 -23 Q484 -23 393.5 5.5 Q303 34 235.5 91.5 Q168 149 129 235.5 Q90 322 90 438 Q90 550 127 656 Q164 762 233 844 Q275 894 324.5 929 Q374 964 426 986.5 Q478 1009 532 1019.5 Q586 1030 637 1030 Q727 1030 802.5 1001 Q878 972 933 919 Q988 866 1018.5 791.5 Q1049 717 1049 625 Q1049 583 1043 535 Q1037 487 1026 449 L272 449 Z M877 616 Q877 670 861.5 715.5 Q846 761 814.5 794 Q783 827 736.5 845.5 Q690 864 629 864 Q570 864 517.5 846 Q465 828 422 793.5 Q379 759 346.5 709.5 Q314 660 295 596 L877 596 L877 616 Z M694 1153 L552 1153 L770 1489 L978 1489 L694 1153 Z " />
<glyph glyph-name="ecircumflex" unicode="&#xea;" horiz-adv-x="1126" d="M272 449 Q273 373 297.5 315.5 Q322 258 365.5 220 Q409 182 468.5 162.5 Q528 143 598 143 Q643 143 688 150.5 Q733 158 774 170 Q815 182 852 197.5 Q889 213 918 229 L883 37 Q851 22 813.5 10.5 Q776 -1 737.5 -8.5 Q699 -16 660 -19.5 Q621 -23 586 -23 Q484 -23 393.5 5.5 Q303 34 235.5 91.5 Q168 149 129 235.5 Q90 322 90 438 Q90 550 127 656 Q164 762 233 844 Q275 894 324.5 929 Q374 964 426 986.5 Q478 1009 532 1019.5 Q586 1030 637 1030 Q727 1030 802.5 1001 Q878 972 933 919 Q988 866 1018.5 791.5 Q1049 717 1049 625 Q1049 583 1043 535 Q1037 487 1026 449 L272 449 Z M877 616 Q877 670 861.5 715.5 Q846 761 814.5 794 Q783 827 736.5 845.5 Q690 864 629 864 Q570 864 517.5 846 Q465 828 422 793.5 Q379 759 346.5 709.5 Q314 660 295 596 L877 596 L877 616 Z M358 1161 L743 1509 L751 1509 L1017 1161 L847 1161 L722 1311 L548 1161 L358 1161 Z " />
<glyph glyph-name="ecaron" unicode="&#x11b;" horiz-adv-x="1126" d="M272 449 Q273 373 297.5 315.5 Q322 258 365.5 220 Q409 182 468.5 162.5 Q528 143 598 143 Q643 143 688 150.5 Q733 158 774 170 Q815 182 852 197.5 Q889 213 918 229 L883 37 Q851 22 813.5 10.5 Q776 -1 737.5 -8.5 Q699 -16 660 -19.5 Q621 -23 586 -23 Q484 -23 393.5 5.5 Q303 34 235.5 91.5 Q168 149 129 235.5 Q90 322 90 438 Q90 550 127 656 Q164 762 233 844 Q275 894 324.5 929 Q374 964 426 986.5 Q478 1009 532 1019.5 Q586 1030 637 1030 Q727 1030 802.5 1001 Q878 972 933 919 Q988 866 1018.5 791.5 Q1049 717 1049 625 Q1049 583 1043 535 Q1037 487 1026 449 L272 449 Z M877 616 Q877 670 861.5 715.5 Q846 761 814.5 794 Q783 827 736.5 845.5 Q690 864 629 864 Q570 864 517.5 846 Q465 828 422 793.5 Q379 759 346.5 709.5 Q314 660 295 596 L877 596 L877 616 Z M1073 1481 L688 1133 L679 1133 L413 1481 L583 1481 L708 1331 L882 1481 L1073 1481 Z " />
<glyph glyph-name="edieresis" unicode="&#xeb;" horiz-adv-x="1126" d="M272 449 Q273 373 297.5 315.5 Q322 258 365.5 220 Q409 182 468.5 162.5 Q528 143 598 143 Q643 143 688 150.5 Q733 158 774 170 Q815 182 852 197.5 Q889 213 918 229 L883 37 Q851 22 813.5 10.5 Q776 -1 737.5 -8.5 Q699 -16 660 -19.5 Q621 -23 586 -23 Q484 -23 393.5 5.5 Q303 34 235.5 91.5 Q168 149 129 235.5 Q90 322 90 438 Q90 550 127 656 Q164 762 233 844 Q275 894 324.5 929 Q374 964 426 986.5 Q478 1009 532 1019.5 Q586 1030 637 1030 Q727 1030 802.5 1001 Q878 972 933 919 Q988 866 1018.5 791.5 Q1049 717 1049 625 Q1049 583 1043 535 Q1037 487 1026 449 L272 449 Z M877 616 Q877 670 861.5 715.5 Q846 761 814.5 794 Q783 827 736.5 845.5 Q690 864 629 864 Q570 864 517.5 846 Q465 828 422 793.5 Q379 759 346.5 709.5 Q314 660 295 596 L877 596 L877 616 Z M909 1208 Q886 1208 866 1216.5 Q846 1225 831.5 1239 Q817 1253 808.5 1272.5 Q800 1292 800 1315 Q800 1340 810 1362 Q820 1384 836.5 1400 Q853 1416 875.5 1425 Q898 1434 923 1434 Q946 1434 966 1425.5 Q986 1417 1000.5 1402.5 Q1015 1388 1023.5 1368.5 Q1032 1349 1032 1327 Q1032 1302 1022 1280 Q1012 1258 995.5 1242 Q979 1226 956.5 1217 Q934 1208 909 1208 Z M512 1208 Q489 1208 469 1216.5 Q449 1225 434.5 1239 Q420 1253 411.5 1272.5 Q403 1292 403 1315 Q403 1340 412.5 1362 Q422 1384 439 1400 Q456 1416 478 1425 Q500 1434 526 1434 Q549 1434 568.5 1425.5 Q588 1417 602.5 1402.5 Q617 1388 625.5 1368.5 Q634 1349 634 1327 Q634 1302 624.5 1280 Q615 1258 598.5 1242 Q582 1226 559.5 1217 Q537 1208 512 1208 Z " />
<glyph glyph-name="emacron" unicode="&#x113;" horiz-adv-x="1126" d="M272 449 Q273 373 297.5 315.5 Q322 258 365.5 220 Q409 182 468.5 162.5 Q528 143 598 143 Q643 143 688 150.5 Q733 158 774 170 Q815 182 852 197.5 Q889 213 918 229 L883 37 Q851 22 813.5 10.5 Q776 -1 737.5 -8.5 Q699 -16 660 -19.5 Q621 -23 586 -23 Q484 -23 393.5 5.5 Q303 34 235.5 91.5 Q168 149 129 235.5 Q90 322 90 438 Q90 550 127 656 Q164 762 233 844 Q275 894 324.5 929 Q374 964 426 986.5 Q478 1009 532 1019.5 Q586 1030 637 1030 Q727 1030 802.5 1001 Q878 972 933 919 Q988 866 1018.5 791.5 Q1049 717 1049 625 Q1049 583 1043 535 Q1037 487 1026 449 L272 449 Z M877 616 Q877 670 861.5 715.5 Q846 761 814.5 794 Q783 827 736.5 845.5 Q690 864 629 864 Q570 864 517.5 846 Q465 828 422 793.5 Q379 759 346.5 709.5 Q314 660 295 596 L877 596 L877 616 Z M448 1391 L1007 1391 L983 1251 L423 1251 L448 1391 Z " />
<glyph glyph-name="ebreve" unicode="&#x115;" horiz-adv-x="1126" d="M272 449 Q273 373 297.5 315.5 Q322 258 365.5 220 Q409 182 468.5 162.5 Q528 143 598 143 Q643 143 688 150.5 Q733 158 774 170 Q815 182 852 197.5 Q889 213 918 229 L883 37 Q851 22 813.5 10.5 Q776 -1 737.5 -8.5 Q699 -16 660 -19.5 Q621 -23 586 -23 Q484 -23 393.5 5.5 Q303 34 235.5 91.5 Q168 149 129 235.5 Q90 322 90 438 Q90 550 127 656 Q164 762 233 844 Q275 894 324.5 929 Q374 964 426 986.5 Q478 1009 532 1019.5 Q586 1030 637 1030 Q727 1030 802.5 1001 Q878 972 933 919 Q988 866 1018.5 791.5 Q1049 717 1049 625 Q1049 583 1043 535 Q1037 487 1026 449 L272 449 Z M877 616 Q877 670 861.5 715.5 Q846 761 814.5 794 Q783 827 736.5 845.5 Q690 864 629 864 Q570 864 517.5 846 Q465 828 422 793.5 Q379 759 346.5 709.5 Q314 660 295 596 L877 596 L877 616 Z M1024 1475 Q1012 1397 982 1340 Q952 1283 909.5 1245.5 Q867 1208 814.5 1189.5 Q762 1171 706 1171 Q651 1171 605 1188.5 Q559 1206 526 1238 Q493 1270 474.5 1315 Q456 1360 456 1415 Q456 1446 462 1475 L579 1475 Q577 1465 576 1454.5 Q575 1444 575 1432 Q575 1402 583.5 1375.5 Q592 1349 610 1329 Q628 1309 655 1297.5 Q682 1286 720 1286 Q760 1286 791 1299.5 Q822 1313 844.5 1337.5 Q867 1362 882.5 1397 Q898 1432 907 1475 L1024 1475 Z " />
<glyph glyph-name="edotaccent" unicode="&#x117;" horiz-adv-x="1126" d="M272 449 Q273 373 297.5 315.5 Q322 258 365.5 220 Q409 182 468.5 162.5 Q528 143 598 143 Q643 143 688 150.5 Q733 158 774 170 Q815 182 852 197.5 Q889 213 918 229 L883 37 Q851 22 813.5 10.5 Q776 -1 737.5 -8.5 Q699 -16 660 -19.5 Q621 -23 586 -23 Q484 -23 393.5 5.5 Q303 34 235.5 91.5 Q168 149 129 235.5 Q90 322 90 438 Q90 550 127 656 Q164 762 233 844 Q275 894 324.5 929 Q374 964 426 986.5 Q478 1009 532 1019.5 Q586 1030 637 1030 Q727 1030 802.5 1001 Q878 972 933 919 Q988 866 1018.5 791.5 Q1049 717 1049 625 Q1049 583 1043 535 Q1037 487 1026 449 L272 449 Z M877 616 Q877 670 861.5 715.5 Q846 761 814.5 794 Q783 827 736.5 845.5 Q690 864 629 864 Q570 864 517.5 846 Q465 828 422 793.5 Q379 759 346.5 709.5 Q314 660 295 596 L877 596 L877 616 Z M710 1208 Q687 1208 667.5 1216.5 Q648 1225 633.5 1239 Q619 1253 610.5 1272.5 Q602 1292 602 1315 Q602 1340 611.5 1362 Q621 1384 638 1400 Q655 1416 677 1425 Q699 1434 725 1434 Q748 1434 767.5 1425.5 Q787 1417 801.5 1402.5 Q816 1388 824.5 1368.5 Q833 1349 833 1327 Q833 1302 823.5 1280 Q814 1258 797 1242 Q780 1226 757.5 1217 Q735 1208 710 1208 Z " />
<glyph glyph-name="eogonek" unicode="&#x119;" horiz-adv-x="1126" d="M272 449 Q272 374 297 316.5 Q322 259 365.5 220.5 Q409 182 468.5 162.5 Q528 143 598 143 Q643 143 688 150.5 Q733 158 774 170 Q815 182 852 197.5 Q889 213 918 229 L883 37 Q835 8 789 -26.5 Q743 -61 707 -98.5 Q671 -136 649 -177 Q627 -218 627 -260 Q627 -300 654 -324 Q681 -348 735 -348 Q749 -348 766 -346.5 Q783 -345 797 -342 L774 -467 Q760 -469 742 -471 Q724 -473 702 -473 Q658 -473 616 -462 Q574 -451 541.5 -428 Q509 -405 489 -369.5 Q469 -334 469 -285 Q469 -209 508.5 -143.5 Q548 -78 610 -27 L608 -23 L586 -23 Q484 -23 393.5 5.5 Q303 34 235.5 91.5 Q168 149 129 235.5 Q90 322 90 438 Q90 550 127 656 Q164 762 233 844 Q275 894 324.5 929 Q374 964 426 986.5 Q478 1009 532 1019.5 Q586 1030 637 1030 Q727 1030 802.5 1001 Q878 972 933 919 Q988 866 1018.5 791.5 Q1049 717 1049 625 Q1049 583 1043 535 Q1037 487 1026 449 L272 449 Z M877 616 Q877 670 861.5 715.5 Q846 761 814.5 794 Q783 827 736.5 845.5 Q690 864 629 864 Q570 864 517.5 846 Q465 828 422 793.5 Q379 759 346.5 709.5 Q314 660 295 596 L877 596 L877 616 Z " />
<glyph glyph-name="gcircumflex" unicode="&#x11d;" horiz-adv-x="1176" d="M752 86 Q727 69 700.5 54 Q674 39 643.5 28 Q613 17 578 10.5 Q543 4 502 4 Q412 4 336.5 35 Q261 66 206 123 Q151 180 120.5 259 Q90 338 90 434 Q90 491 101.5 549.5 Q113 608 135 664 Q157 720 189 771 Q221 822 262 864 Q341 945 449 987.5 Q557 1030 682 1030 Q784 1030 888 1003 Q992 976 1087 930 L924 -2 Q901 -131 851.5 -220.5 Q802 -310 731.5 -366.5 Q661 -423 572 -448 Q483 -473 381 -473 Q290 -473 200.5 -453 Q111 -433 23 -385 L57 -193 Q90 -217 129.5 -237.5 Q169 -258 212 -273 Q255 -288 300.5 -296.5 Q346 -305 391 -305 Q452 -305 508 -288.5 Q564 -272 610 -236.5 Q656 -201 689 -145.5 Q722 -90 737 -12 L754 84 L752 86 Z M885 823 Q864 832 837.5 839.5 Q811 847 781.5 853 Q752 859 721.5 862.5 Q691 866 662 866 Q571 866 503 833 Q435 800 387 748 Q333 688 303.5 608.5 Q274 529 274 449 Q274 384 293 331.5 Q312 279 347 241.5 Q382 204 431 184 Q480 164 539 164 Q607 164 668.5 189 Q730 214 784 254 L885 823 Z M395 1161 L780 1509 L788 1509 L1054 1161 L884 1161 L759 1311 L585 1161 L395 1161 Z " />
<glyph glyph-name="gbreve" unicode="&#x11f;" horiz-adv-x="1176" d="M752 86 Q727 69 700.5 54 Q674 39 643.5 28 Q613 17 578 10.5 Q543 4 502 4 Q412 4 336.5 35 Q261 66 206 123 Q151 180 120.5 259 Q90 338 90 434 Q90 491 101.5 549.5 Q113 608 135 664 Q157 720 189 771 Q221 822 262 864 Q341 945 449 987.5 Q557 1030 682 1030 Q784 1030 888 1003 Q992 976 1087 930 L924 -2 Q901 -131 851.5 -220.5 Q802 -310 731.5 -366.5 Q661 -423 572 -448 Q483 -473 381 -473 Q290 -473 200.5 -453 Q111 -433 23 -385 L57 -193 Q90 -217 129.5 -237.5 Q169 -258 212 -273 Q255 -288 300.5 -296.5 Q346 -305 391 -305 Q452 -305 508 -288.5 Q564 -272 610 -236.5 Q656 -201 689 -145.5 Q722 -90 737 -12 L754 84 L752 86 Z M885 823 Q864 832 837.5 839.5 Q811 847 781.5 853 Q752 859 721.5 862.5 Q691 866 662 866 Q571 866 503 833 Q435 800 387 748 Q333 688 303.5 608.5 Q274 529 274 449 Q274 384 293 331.5 Q312 279 347 241.5 Q382 204 431 184 Q480 164 539 164 Q607 164 668.5 189 Q730 214 784 254 L885 823 Z M1061 1475 Q1049 1397 1019 1340 Q989 1283 946.5 1245.5 Q904 1208 851.5 1189.5 Q799 1171 743 1171 Q688 1171 642 1188.5 Q596 1206 563 1238 Q530 1270 511.5 1315 Q493 1360 493 1415 Q493 1446 499 1475 L616 1475 Q614 1465 613 1454.5 Q612 1444 612 1432 Q612 1402 620.5 1375.5 Q629 1349 647 1329 Q665 1309 692 1297.5 Q719 1286 757 1286 Q797 1286 828 1299.5 Q859 1313 881.5 1337.5 Q904 1362 919.5 1397 Q935 1432 944 1475 L1061 1475 Z " />
<glyph glyph-name="gdotaccent" unicode="&#x121;" horiz-adv-x="1176" d="M752 86 Q727 69 700.5 54 Q674 39 643.5 28 Q613 17 578 10.5 Q543 4 502 4 Q412 4 336.5 35 Q261 66 206 123 Q151 180 120.5 259 Q90 338 90 434 Q90 491 101.5 549.5 Q113 608 135 664 Q157 720 189 771 Q221 822 262 864 Q341 945 449 987.5 Q557 1030 682 1030 Q784 1030 888 1003 Q992 976 1087 930 L924 -2 Q901 -131 851.5 -220.5 Q802 -310 731.5 -366.5 Q661 -423 572 -448 Q483 -473 381 -473 Q290 -473 200.5 -453 Q111 -433 23 -385 L57 -193 Q90 -217 129.5 -237.5 Q169 -258 212 -273 Q255 -288 300.5 -296.5 Q346 -305 391 -305 Q452 -305 508 -288.5 Q564 -272 610 -236.5 Q656 -201 689 -145.5 Q722 -90 737 -12 L754 84 L752 86 Z M885 823 Q864 832 837.5 839.5 Q811 847 781.5 853 Q752 859 721.5 862.5 Q691 866 662 866 Q571 866 503 833 Q435 800 387 748 Q333 688 303.5 608.5 Q274 529 274 449 Q274 384 293 331.5 Q312 279 347 241.5 Q382 204 431 184 Q480 164 539 164 Q607 164 668.5 189 Q730 214 784 254 L885 823 Z M747 1208 Q724 1208 704.5 1216.5 Q685 1225 670.5 1239 Q656 1253 647.5 1272.5 Q639 1292 639 1315 Q639 1340 648.5 1362 Q658 1384 675 1400 Q692 1416 714 1425 Q736 1434 762 1434 Q785 1434 804.5 1425.5 Q824 1417 838.5 1402.5 Q853 1388 861.5 1368.5 Q870 1349 870 1327 Q870 1302 860.5 1280 Q851 1258 834 1242 Q817 1226 794.5 1217 Q772 1208 747 1208 Z " />
<glyph glyph-name="gcommaaccent" unicode="&#x123;" horiz-adv-x="1176" d="M752 86 Q727 69 700.5 54 Q674 39 643.5 28 Q613 17 578 10.5 Q543 4 502 4 Q412 4 336.5 35 Q261 66 206 123 Q151 180 120.5 259 Q90 338 90 434 Q90 491 101.5 549.5 Q113 608 135 664 Q157 720 189 771 Q221 822 262 864 Q341 945 449 987.5 Q557 1030 682 1030 Q784 1030 888 1003 Q992 976 1087 930 L924 -2 Q901 -131 851.5 -220.5 Q802 -310 731.5 -366.5 Q661 -423 572 -448 Q483 -473 381 -473 Q290 -473 200.5 -453 Q111 -433 23 -385 L57 -193 Q90 -217 129.5 -237.5 Q169 -258 212 -273 Q255 -288 300.5 -296.5 Q346 -305 391 -305 Q452 -305 508 -288.5 Q564 -272 610 -236.5 Q656 -201 689 -145.5 Q722 -90 737 -12 L754 84 L752 86 Z M885 823 Q864 832 837.5 839.5 Q811 847 781.5 853 Q752 859 721.5 862.5 Q691 866 662 866 Q571 866 503 833 Q435 800 387 748 Q333 688 303.5 608.5 Q274 529 274 449 Q274 384 293 331.5 Q312 279 347 241.5 Q382 204 431 184 Q480 164 539 164 Q607 164 668.5 189 Q730 214 784 254 L885 823 Z M829 1585 L966 1585 L778 1139 L592 1139 L829 1585 Z " />
<glyph glyph-name="hcircumflex" unicode="&#x125;" horiz-adv-x="1212" d="M350 1565 L535 1565 L414 885 L418 883 Q495 946 584 988 Q673 1030 776 1030 Q845 1030 901.5 1009 Q958 988 998 948 Q1038 908 1059.5 851 Q1081 794 1081 721 Q1081 695 1077.5 662 Q1074 629 1065 580 L963 0 L778 0 L879 567 Q887 609 890 637.5 Q893 666 893 688 Q893 727 883.5 758 Q874 789 854 811.5 Q834 834 801.5 846 Q769 858 723 858 Q678 858 634.5 846 Q591 834 549 813 Q507 792 465 763 Q423 734 381 700 L258 0 L74 0 L350 1565 Z M119 1670 L504 2018 L512 2018 L778 1670 L608 1670 L483 1820 L309 1670 L119 1670 Z " />
<glyph glyph-name="hbar" unicode="&#x127;" horiz-adv-x="1212" d="M135 1352 L311 1352 L350 1565 L535 1565 L496 1352 L799 1352 L772 1202 L469 1202 L414 885 L418 883 Q495 946 584 988 Q673 1030 776 1030 Q845 1030 901.5 1009 Q958 988 998 948 Q1038 908 1059.5 851 Q1081 794 1081 721 Q1081 695 1077.5 662 Q1074 629 1065 580 L963 0 L778 0 L879 567 Q887 609 890 637.5 Q893 666 893 688 Q893 727 883.5 758 Q874 789 854 811.5 Q834 834 801.5 846 Q769 858 723 858 Q678 858 634.5 846 Q591 834 549 813 Q507 792 465 763 Q423 734 381 700 L258 0 L74 0 L285 1202 L109 1202 L135 1352 Z " />
<glyph glyph-name="igrave" unicode="&#xec;" horiz-adv-x="510" d="M252 1008 L436 1008 L258 0 L74 0 L252 1008 Z M202 1489 L406 1489 L505 1153 L368 1153 L202 1489 Z " />
<glyph glyph-name="iacute" unicode="&#xed;" horiz-adv-x="510" d="M252 1008 L436 1008 L258 0 L74 0 L252 1008 Z M378 1153 L236 1153 L454 1489 L662 1489 L378 1153 Z " />
<glyph glyph-name="icircumflex" unicode="&#xee;" horiz-adv-x="510" d="M252 1008 L436 1008 L258 0 L74 0 L252 1008 Z M42 1161 L427 1509 L435 1509 L701 1161 L531 1161 L406 1311 L232 1161 L42 1161 Z " />
<glyph glyph-name="itilde" unicode="&#x129;" horiz-adv-x="510" d="M252 1008 L436 1008 L258 0 L74 0 L252 1008 Z M705 1276 Q678 1245 634.5 1222.5 Q591 1200 535 1200 Q495 1200 456.5 1215 Q418 1230 372 1253 Q331 1273 299 1284.5 Q267 1296 232 1296 Q205 1296 181 1287.5 Q157 1279 136.5 1264.5 Q116 1250 99 1232 Q82 1214 69 1196 L64 1198 L95 1372 Q123 1403 166 1425.5 Q209 1448 265 1448 Q305 1448 344 1433 Q383 1418 429 1395 Q469 1375 501 1363.5 Q533 1352 568 1352 Q596 1352 620 1360.5 Q644 1369 664 1383.5 Q684 1398 701 1416 Q718 1434 732 1452 L736 1450 L705 1276 Z " />
<glyph glyph-name="idieresis" unicode="&#xef;" horiz-adv-x="510" d="M252 1008 L436 1008 L258 0 L74 0 L252 1008 Z M593 1208 Q570 1208 550 1216.5 Q530 1225 515.5 1239 Q501 1253 492.5 1272.5 Q484 1292 484 1315 Q484 1340 494 1362 Q504 1384 520.5 1400 Q537 1416 559.5 1425 Q582 1434 607 1434 Q630 1434 650 1425.5 Q670 1417 684.5 1402.5 Q699 1388 707.5 1368.5 Q716 1349 716 1327 Q716 1302 706 1280 Q696 1258 679.5 1242 Q663 1226 640.5 1217 Q618 1208 593 1208 Z M196 1208 Q173 1208 153 1216.5 Q133 1225 118.5 1239 Q104 1253 95.5 1272.5 Q87 1292 87 1315 Q87 1340 96.5 1362 Q106 1384 123 1400 Q140 1416 162 1425 Q184 1434 210 1434 Q233 1434 252.5 1425.5 Q272 1417 286.5 1402.5 Q301 1388 309.5 1368.5 Q318 1349 318 1327 Q318 1302 308.5 1280 Q299 1258 282.5 1242 Q266 1226 243.5 1217 Q221 1208 196 1208 Z " />
<glyph glyph-name="imacron" unicode="&#x12b;" horiz-adv-x="510" d="M252 1008 L436 1008 L258 0 L74 0 L252 1008 Z M132 1391 L691 1391 L667 1251 L107 1251 L132 1391 Z " />
<glyph glyph-name="ibreve" unicode="&#x12d;" horiz-adv-x="510" d="M252 1008 L436 1008 L258 0 L74 0 L252 1008 Z M708 1475 Q696 1397 666 1340 Q636 1283 593.5 1245.5 Q551 1208 498.5 1189.5 Q446 1171 390 1171 Q335 1171 289 1188.5 Q243 1206 210 1238 Q177 1270 158.5 1315 Q140 1360 140 1415 Q140 1446 146 1475 L263 1475 Q261 1465 260 1454.5 Q259 1444 259 1432 Q259 1402 267.5 1375.5 Q276 1349 294 1329 Q312 1309 339 1297.5 Q366 1286 404 1286 Q444 1286 475 1299.5 Q506 1313 528.5 1337.5 Q551 1362 566.5 1397 Q582 1432 591 1475 L708 1475 Z " />
<glyph glyph-name="iogonek" unicode="&#x12f;" horiz-adv-x="510" d="M233 -465 Q218 -468 197.5 -470.5 Q177 -473 156 -473 Q109 -473 66.5 -461 Q24 -449 -8.5 -424 Q-41 -399 -60.5 -362.5 Q-80 -326 -80 -276 Q-80 -237 -68 -199 Q-56 -161 -35 -125.5 Q-14 -90 14 -58 Q42 -26 74 2 L252 1008 L436 1008 L258 0 Q225 -25 193 -54 Q161 -83 136 -115 Q111 -147 95.5 -181.5 Q80 -216 80 -252 Q80 -297 107 -322.5 Q134 -348 188 -348 Q202 -348 222 -345.5 Q242 -343 256 -340 L233 -465 Z M285 1348 Q285 1374 295 1396.5 Q305 1419 322 1436 Q339 1453 362.5 1463 Q386 1473 412 1473 Q436 1473 457 1464 Q478 1455 493.5 1439.5 Q509 1424 517.5 1403.5 Q526 1383 526 1360 Q526 1334 515.5 1311 Q505 1288 487.5 1271 Q470 1254 446.5 1244.5 Q423 1235 397 1235 Q373 1235 352.5 1244 Q332 1253 317 1268.5 Q302 1284 293.5 1304.5 Q285 1325 285 1348 Z " />
<glyph glyph-name="dotlessi" unicode="&#x131;" horiz-adv-x="510" d="M252 1008 L436 1008 L258 0 L74 0 L252 1008 Z " />
<glyph glyph-name="ij" unicode="&#x133;" horiz-adv-x="1026" d="M285 1348 Q285 1374 295 1396.5 Q305 1419 322 1436 Q339 1453 362.5 1463 Q386 1473 412 1473 Q436 1473 457 1464 Q478 1455 493.5 1439.5 Q509 1424 517.5 1403.5 Q526 1383 526 1360 Q526 1334 515.5 1311 Q505 1288 487.5 1271 Q470 1254 446.5 1244.5 Q423 1235 397 1235 Q373 1235 352.5 1244 Q332 1253 317 1268.5 Q302 1284 293.5 1304.5 Q285 1325 285 1348 Z M252 1008 L436 1008 L258 0 L74 0 L252 1008 Z M801 1348 Q801 1374 811 1396.5 Q821 1419 838 1436 Q855 1453 878.5 1463 Q902 1473 928 1473 Q952 1473 973 1464 Q994 1455 1009.5 1439.5 Q1025 1424 1033.5 1403.5 Q1042 1383 1042 1360 Q1042 1334 1031.5 1311 Q1021 1288 1003.5 1271 Q986 1254 962.5 1244.5 Q939 1235 913 1235 Q889 1235 868.5 1244 Q848 1253 833 1268.5 Q818 1284 809.5 1304.5 Q801 1325 801 1348 Z M768 1008 L952 1008 L750 -143 Q742 -188 732 -223 Q722 -258 710 -286 Q698 -314 683.5 -335.5 Q669 -357 653 -375 Q604 -429 540.5 -451 Q477 -473 408 -473 Q370 -473 331 -467.5 Q292 -462 258 -451 L287 -283 Q315 -291 347 -298 Q379 -305 408 -305 Q448 -305 475.5 -292 Q503 -279 521.5 -255 Q540 -231 550.5 -197 Q561 -163 569 -121 L768 1008 Z " />
<glyph glyph-name="dotlessj" unicode="&#x237;" horiz-adv-x="516" d="M258 1008 L442 1008 L240 -143 Q232 -188 222 -223 Q212 -258 200 -286 Q188 -314 173.5 -335.5 Q159 -357 143 -375 Q94 -429 30.5 -451 Q-33 -473 -102 -473 Q-140 -473 -179 -467.5 Q-218 -462 -252 -451 L-223 -283 Q-195 -291 -163 -298 Q-131 -305 -102 -305 Q-62 -305 -34.5 -292 Q-7 -279 11.5 -255 Q30 -231 40.5 -197 Q51 -163 59 -121 L258 1008 Z " />
<glyph glyph-name="jcircumflex" unicode="&#x135;" horiz-adv-x="516" d="M258 1008 L442 1008 L240 -143 Q232 -188 222 -223 Q212 -258 200 -286 Q188 -314 173.5 -335.5 Q159 -357 143 -375 Q94 -429 30.5 -451 Q-33 -473 -102 -473 Q-140 -473 -179 -467.5 Q-218 -462 -252 -451 L-223 -283 Q-195 -291 -163 -298 Q-131 -305 -102 -305 Q-62 -305 -34.5 -292 Q-7 -279 11.5 -255 Q30 -231 40.5 -197 Q51 -163 59 -121 L258 1008 Z M50 1161 L435 1509 L443 1509 L709 1161 L539 1161 L414 1311 L240 1161 L50 1161 Z " />
<glyph glyph-name="kcommaaccent" unicode="&#x137;" horiz-adv-x="1098" d="M350 1565 L535 1565 L362 592 L367 592 L909 1008 L1155 1008 L565 557 L971 0 L752 0 L358 545 L354 545 L258 0 L74 0 L350 1565 Z M547 -111 L311 -557 L172 -557 L363 -111 L547 -111 Z " />
<glyph glyph-name="kgreenlandic" unicode="&#x138;" horiz-adv-x="1098" d="M252 1008 L436 1008 L362 592 L367 592 L909 1008 L1155 1008 L565 557 L971 0 L752 0 L358 545 L354 545 L258 0 L74 0 L252 1008 Z " />
<glyph glyph-name="lacute" unicode="&#x13a;" horiz-adv-x="510" d="M350 1565 L535 1565 L258 0 L74 0 L350 1565 Z M480 1662 L338 1662 L556 1998 L764 1998 L480 1662 Z " />
<glyph glyph-name="lcaron" unicode="&#x13e;" horiz-adv-x="741" d="M350 1565 L535 1565 L258 0 L74 0 L350 1565 Z M952 1564 L716 1118 L577 1118 L768 1564 L952 1564 Z " />
<glyph glyph-name="lcommaaccent" unicode="&#x13c;" horiz-adv-x="510" d="M350 1565 L535 1565 L258 0 L74 0 L350 1565 Z M253 -111 L17 -557 L-122 -557 L69 -111 L253 -111 Z " />
<glyph glyph-name="lslash" unicode="&#x142;" horiz-adv-x="526" d="M-2 485 L31 666 L219 776 L358 1565 L543 1565 L424 895 L612 1006 L580 825 L393 715 L266 0 L82 0 L186 596 L-2 485 Z " />
<glyph glyph-name="ldot" unicode="&#x140;" horiz-adv-x="731" d="M350 1565 L535 1565 L258 0 L74 0 L350 1565 Z M638 554 Q615 554 595.5 562.5 Q576 571 561.5 585 Q547 599 538.5 618.5 Q530 638 530 661 Q530 686 539.5 708 Q549 730 566 746 Q583 762 605 771 Q627 780 653 780 Q676 780 695.5 771.5 Q715 763 729.5 748.5 Q744 734 752.5 714.5 Q761 695 761 673 Q761 648 751.5 626 Q742 604 725 588 Q708 572 685.5 563 Q663 554 638 554 Z " />
<glyph glyph-name="nacute" unicode="&#x144;" horiz-adv-x="1212" d="M252 1008 L436 1008 L414 885 L418 883 Q456 914 498 940.5 Q540 967 585.5 987 Q631 1007 680 1018.5 Q729 1030 780 1030 Q847 1030 902 1009 Q957 988 997 948 Q1037 908 1059 851 Q1081 794 1081 721 Q1081 695 1077.5 662 Q1074 629 1065 580 L963 0 L778 0 L879 567 Q887 609 890 637.5 Q893 666 893 688 Q893 765 855 811.5 Q817 858 731 858 Q687 858 642 845.5 Q597 833 552.5 811.5 Q508 790 464.5 761 Q421 732 381 700 L258 0 L74 0 L252 1008 Z M729 1153 L587 1153 L805 1489 L1013 1489 L729 1153 Z " />
<glyph glyph-name="ncaron" unicode="&#x148;" horiz-adv-x="1212" d="M252 1008 L436 1008 L414 885 L418 883 Q456 914 498 940.5 Q540 967 585.5 987 Q631 1007 680 1018.5 Q729 1030 780 1030 Q847 1030 902 1009 Q957 988 997 948 Q1037 908 1059 851 Q1081 794 1081 721 Q1081 695 1077.5 662 Q1074 629 1065 580 L963 0 L778 0 L879 567 Q887 609 890 637.5 Q893 666 893 688 Q893 765 855 811.5 Q817 858 731 858 Q687 858 642 845.5 Q597 833 552.5 811.5 Q508 790 464.5 761 Q421 732 381 700 L258 0 L74 0 L252 1008 Z M1108 1481 L723 1133 L714 1133 L448 1481 L618 1481 L743 1331 L917 1481 L1108 1481 Z " />
<glyph glyph-name="ntilde" unicode="&#xf1;" horiz-adv-x="1212" d="M252 1008 L436 1008 L414 885 L418 883 Q456 914 498 940.5 Q540 967 585.5 987 Q631 1007 680 1018.5 Q729 1030 780 1030 Q847 1030 902 1009 Q957 988 997 948 Q1037 908 1059 851 Q1081 794 1081 721 Q1081 695 1077.5 662 Q1074 629 1065 580 L963 0 L778 0 L879 567 Q887 609 890 637.5 Q893 666 893 688 Q893 765 855 811.5 Q817 858 731 858 Q687 858 642 845.5 Q597 833 552.5 811.5 Q508 790 464.5 761 Q421 732 381 700 L258 0 L74 0 L252 1008 Z M1056 1276 Q1029 1245 985.5 1222.5 Q942 1200 886 1200 Q846 1200 807.5 1215 Q769 1230 723 1253 Q682 1273 650 1284.5 Q618 1296 583 1296 Q556 1296 532 1287.5 Q508 1279 487.5 1264.5 Q467 1250 450 1232 Q433 1214 420 1196 L415 1198 L446 1372 Q474 1403 517 1425.5 Q560 1448 616 1448 Q656 1448 695 1433 Q734 1418 780 1395 Q820 1375 852 1363.5 Q884 1352 919 1352 Q947 1352 971 1360.5 Q995 1369 1015 1383.5 Q1035 1398 1052 1416 Q1069 1434 1083 1452 L1087 1450 L1056 1276 Z " />
<glyph glyph-name="ncommaaccent" unicode="&#x146;" horiz-adv-x="1212" d="M252 1008 L436 1008 L414 885 L418 883 Q456 914 498 940.5 Q540 967 585.5 987 Q631 1007 680 1018.5 Q729 1030 780 1030 Q847 1030 902 1009 Q957 988 997 948 Q1037 908 1059 851 Q1081 794 1081 721 Q1081 695 1077.5 662 Q1074 629 1065 580 L963 0 L778 0 L879 567 Q887 609 890 637.5 Q893 666 893 688 Q893 765 855 811.5 Q817 858 731 858 Q687 858 642 845.5 Q597 833 552.5 811.5 Q508 790 464.5 761 Q421 732 381 700 L258 0 L74 0 L252 1008 Z M604 -111 L368 -557 L229 -557 L420 -111 L604 -111 Z " />
<glyph glyph-name="napostrophe" unicode="&#x149;" horiz-adv-x="1212" d="M252 1008 L436 1008 L414 885 L418 883 Q456 914 498 940.5 Q540 967 585.5 987 Q631 1007 680 1018.5 Q729 1030 780 1030 Q847 1030 902 1009 Q957 988 997 948 Q1037 908 1059 851 Q1081 794 1081 721 Q1081 695 1077.5 662 Q1074 629 1065 580 L963 0 L778 0 L879 567 Q887 609 890 637.5 Q893 666 893 688 Q893 765 855 811.5 Q817 858 731 858 Q687 858 642 845.5 Q597 833 552.5 811.5 Q508 790 464.5 761 Q421 732 381 700 L258 0 L74 0 L252 1008 Z M612 1581 L376 1135 L237 1135 L428 1581 L612 1581 Z " />
<glyph glyph-name="ograve" unicode="&#xf2;" horiz-adv-x="1212" d="M90 442 Q90 498 100.5 555.5 Q111 613 132 667.5 Q153 722 184 772.5 Q215 823 256 866 Q330 944 429 987 Q528 1030 647 1030 Q750 1030 837 997 Q924 964 987.5 903 Q1051 842 1086.5 756 Q1122 670 1122 565 Q1122 509 1111.5 452 Q1101 395 1080 340 Q1059 285 1028 234.5 Q997 184 956 141 Q882 64 783 20.5 Q684 -23 565 -23 Q462 -23 375 10.5 Q288 44 224.5 104.5 Q161 165 125.5 251 Q90 337 90 442 Z M274 455 Q274 390 294 333.5 Q314 277 353 235 Q392 193 448.5 169 Q505 145 578 145 Q652 145 713.5 172 Q775 199 823 250 Q850 278 871.5 313.5 Q893 349 907.5 388.5 Q922 428 930 469.5 Q938 511 938 553 Q938 618 918 674.5 Q898 731 859.5 772.5 Q821 814 764.5 838 Q708 862 635 862 Q561 862 499 835.5 Q437 809 389 758 Q362 729 340.5 694 Q319 659 304.5 619.5 Q290 580 282 538 Q274 496 274 455 Z M553 1489 L757 1489 L856 1153 L719 1153 L553 1489 Z " />
<glyph glyph-name="oacute" unicode="&#xf3;" horiz-adv-x="1212" d="M90 442 Q90 498 100.5 555.5 Q111 613 132 667.5 Q153 722 184 772.5 Q215 823 256 866 Q330 944 429 987 Q528 1030 647 1030 Q750 1030 837 997 Q924 964 987.5 903 Q1051 842 1086.5 756 Q1122 670 1122 565 Q1122 509 1111.5 452 Q1101 395 1080 340 Q1059 285 1028 234.5 Q997 184 956 141 Q882 64 783 20.5 Q684 -23 565 -23 Q462 -23 375 10.5 Q288 44 224.5 104.5 Q161 165 125.5 251 Q90 337 90 442 Z M274 455 Q274 390 294 333.5 Q314 277 353 235 Q392 193 448.5 169 Q505 145 578 145 Q652 145 713.5 172 Q775 199 823 250 Q850 278 871.5 313.5 Q893 349 907.5 388.5 Q922 428 930 469.5 Q938 511 938 553 Q938 618 918 674.5 Q898 731 859.5 772.5 Q821 814 764.5 838 Q708 862 635 862 Q561 862 499 835.5 Q437 809 389 758 Q362 729 340.5 694 Q319 659 304.5 619.5 Q290 580 282 538 Q274 496 274 455 Z M729 1153 L587 1153 L805 1489 L1013 1489 L729 1153 Z " />
<glyph glyph-name="ocircumflex" unicode="&#xf4;" horiz-adv-x="1212" d="M90 442 Q90 498 100.5 555.5 Q111 613 132 667.5 Q153 722 184 772.5 Q215 823 256 866 Q330 944 429 987 Q528 1030 647 1030 Q750 1030 837 997 Q924 964 987.5 903 Q1051 842 1086.5 756 Q1122 670 1122 565 Q1122 509 1111.5 452 Q1101 395 1080 340 Q1059 285 1028 234.5 Q997 184 956 141 Q882 64 783 20.5 Q684 -23 565 -23 Q462 -23 375 10.5 Q288 44 224.5 104.5 Q161 165 125.5 251 Q90 337 90 442 Z M274 455 Q274 390 294 333.5 Q314 277 353 235 Q392 193 448.5 169 Q505 145 578 145 Q652 145 713.5 172 Q775 199 823 250 Q850 278 871.5 313.5 Q893 349 907.5 388.5 Q922 428 930 469.5 Q938 511 938 553 Q938 618 918 674.5 Q898 731 859.5 772.5 Q821 814 764.5 838 Q708 862 635 862 Q561 862 499 835.5 Q437 809 389 758 Q362 729 340.5 694 Q319 659 304.5 619.5 Q290 580 282 538 Q274 496 274 455 Z M393 1161 L778 1509 L786 1509 L1052 1161 L882 1161 L757 1311 L583 1161 L393 1161 Z " />
<glyph glyph-name="otilde" unicode="&#xf5;" horiz-adv-x="1212" d="M90 442 Q90 498 100.5 555.5 Q111 613 132 667.5 Q153 722 184 772.5 Q215 823 256 866 Q330 944 429 987 Q528 1030 647 1030 Q750 1030 837 997 Q924 964 987.5 903 Q1051 842 1086.5 756 Q1122 670 1122 565 Q1122 509 1111.5 452 Q1101 395 1080 340 Q1059 285 1028 234.5 Q997 184 956 141 Q882 64 783 20.5 Q684 -23 565 -23 Q462 -23 375 10.5 Q288 44 224.5 104.5 Q161 165 125.5 251 Q90 337 90 442 Z M274 455 Q274 390 294 333.5 Q314 277 353 235 Q392 193 448.5 169 Q505 145 578 145 Q652 145 713.5 172 Q775 199 823 250 Q850 278 871.5 313.5 Q893 349 907.5 388.5 Q922 428 930 469.5 Q938 511 938 553 Q938 618 918 674.5 Q898 731 859.5 772.5 Q821 814 764.5 838 Q708 862 635 862 Q561 862 499 835.5 Q437 809 389 758 Q362 729 340.5 694 Q319 659 304.5 619.5 Q290 580 282 538 Q274 496 274 455 Z M1056 1276 Q1029 1245 985.5 1222.5 Q942 1200 886 1200 Q846 1200 807.5 1215 Q769 1230 723 1253 Q682 1273 650 1284.5 Q618 1296 583 1296 Q556 1296 532 1287.5 Q508 1279 487.5 1264.5 Q467 1250 450 1232 Q433 1214 420 1196 L415 1198 L446 1372 Q474 1403 517 1425.5 Q560 1448 616 1448 Q656 1448 695 1433 Q734 1418 780 1395 Q820 1375 852 1363.5 Q884 1352 919 1352 Q947 1352 971 1360.5 Q995 1369 1015 1383.5 Q1035 1398 1052 1416 Q1069 1434 1083 1452 L1087 1450 L1056 1276 Z " />
<glyph glyph-name="odieresis" unicode="&#xf6;" horiz-adv-x="1212" d="M90 442 Q90 498 100.5 555.5 Q111 613 132 667.5 Q153 722 184 772.5 Q215 823 256 866 Q330 944 429 987 Q528 1030 647 1030 Q750 1030 837 997 Q924 964 987.5 903 Q1051 842 1086.5 756 Q1122 670 1122 565 Q1122 509 1111.5 452 Q1101 395 1080 340 Q1059 285 1028 234.5 Q997 184 956 141 Q882 64 783 20.5 Q684 -23 565 -23 Q462 -23 375 10.5 Q288 44 224.5 104.5 Q161 165 125.5 251 Q90 337 90 442 Z M274 455 Q274 390 294 333.5 Q314 277 353 235 Q392 193 448.5 169 Q505 145 578 145 Q652 145 713.5 172 Q775 199 823 250 Q850 278 871.5 313.5 Q893 349 907.5 388.5 Q922 428 930 469.5 Q938 511 938 553 Q938 618 918 674.5 Q898 731 859.5 772.5 Q821 814 764.5 838 Q708 862 635 862 Q561 862 499 835.5 Q437 809 389 758 Q362 729 340.5 694 Q319 659 304.5 619.5 Q290 580 282 538 Q274 496 274 455 Z M944 1208 Q921 1208 901 1216.5 Q881 1225 866.5 1239 Q852 1253 843.5 1272.5 Q835 1292 835 1315 Q835 1340 845 1362 Q855 1384 871.5 1400 Q888 1416 910.5 1425 Q933 1434 958 1434 Q981 1434 1001 1425.5 Q1021 1417 1035.5 1402.5 Q1050 1388 1058.5 1368.5 Q1067 1349 1067 1327 Q1067 1302 1057 1280 Q1047 1258 1030.5 1242 Q1014 1226 991.5 1217 Q969 1208 944 1208 Z M547 1208 Q524 1208 504 1216.5 Q484 1225 469.5 1239 Q455 1253 446.5 1272.5 Q438 1292 438 1315 Q438 1340 447.5 1362 Q457 1384 474 1400 Q491 1416 513 1425 Q535 1434 561 1434 Q584 1434 603.5 1425.5 Q623 1417 637.5 1402.5 Q652 1388 660.5 1368.5 Q669 1349 669 1327 Q669 1302 659.5 1280 Q650 1258 633.5 1242 Q617 1226 594.5 1217 Q572 1208 547 1208 Z " />
<glyph glyph-name="omacron" unicode="&#x14d;" horiz-adv-x="1212" d="M90 442 Q90 498 100.5 555.5 Q111 613 132 667.5 Q153 722 184 772.5 Q215 823 256 866 Q330 944 429 987 Q528 1030 647 1030 Q750 1030 837 997 Q924 964 987.5 903 Q1051 842 1086.5 756 Q1122 670 1122 565 Q1122 509 1111.5 452 Q1101 395 1080 340 Q1059 285 1028 234.5 Q997 184 956 141 Q882 64 783 20.5 Q684 -23 565 -23 Q462 -23 375 10.5 Q288 44 224.5 104.5 Q161 165 125.5 251 Q90 337 90 442 Z M274 455 Q274 390 294 333.5 Q314 277 353 235 Q392 193 448.5 169 Q505 145 578 145 Q652 145 713.5 172 Q775 199 823 250 Q850 278 871.5 313.5 Q893 349 907.5 388.5 Q922 428 930 469.5 Q938 511 938 553 Q938 618 918 674.5 Q898 731 859.5 772.5 Q821 814 764.5 838 Q708 862 635 862 Q561 862 499 835.5 Q437 809 389 758 Q362 729 340.5 694 Q319 659 304.5 619.5 Q290 580 282 538 Q274 496 274 455 Z M483 1391 L1042 1391 L1018 1251 L458 1251 L483 1391 Z " />
<glyph glyph-name="obreve" unicode="&#x14f;" horiz-adv-x="1212" d="M90 442 Q90 498 100.5 555.5 Q111 613 132 667.5 Q153 722 184 772.5 Q215 823 256 866 Q330 944 429 987 Q528 1030 647 1030 Q750 1030 837 997 Q924 964 987.5 903 Q1051 842 1086.5 756 Q1122 670 1122 565 Q1122 509 1111.5 452 Q1101 395 1080 340 Q1059 285 1028 234.5 Q997 184 956 141 Q882 64 783 20.5 Q684 -23 565 -23 Q462 -23 375 10.5 Q288 44 224.5 104.5 Q161 165 125.5 251 Q90 337 90 442 Z M274 455 Q274 390 294 333.5 Q314 277 353 235 Q392 193 448.5 169 Q505 145 578 145 Q652 145 713.5 172 Q775 199 823 250 Q850 278 871.5 313.5 Q893 349 907.5 388.5 Q922 428 930 469.5 Q938 511 938 553 Q938 618 918 674.5 Q898 731 859.5 772.5 Q821 814 764.5 838 Q708 862 635 862 Q561 862 499 835.5 Q437 809 389 758 Q362 729 340.5 694 Q319 659 304.5 619.5 Q290 580 282 538 Q274 496 274 455 Z M1059 1475 Q1047 1397 1017 1340 Q987 1283 944.5 1245.5 Q902 1208 849.5 1189.5 Q797 1171 741 1171 Q686 1171 640 1188.5 Q594 1206 561 1238 Q528 1270 509.5 1315 Q491 1360 491 1415 Q491 1446 497 1475 L614 1475 Q612 1465 611 1454.5 Q610 1444 610 1432 Q610 1402 618.5 1375.5 Q627 1349 645 1329 Q663 1309 690 1297.5 Q717 1286 755 1286 Q795 1286 826 1299.5 Q857 1313 879.5 1337.5 Q902 1362 917.5 1397 Q933 1432 942 1475 L1059 1475 Z " />
<glyph glyph-name="ohungarumlaut" unicode="&#x151;" horiz-adv-x="1212" d="M90 442 Q90 498 100.5 555.5 Q111 613 132 667.5 Q153 722 184 772.5 Q215 823 256 866 Q330 944 429 987 Q528 1030 647 1030 Q750 1030 837 997 Q924 964 987.5 903 Q1051 842 1086.5 756 Q1122 670 1122 565 Q1122 509 1111.5 452 Q1101 395 1080 340 Q1059 285 1028 234.5 Q997 184 956 141 Q882 64 783 20.5 Q684 -23 565 -23 Q462 -23 375 10.5 Q288 44 224.5 104.5 Q161 165 125.5 251 Q90 337 90 442 Z M274 455 Q274 390 294 333.5 Q314 277 353 235 Q392 193 448.5 169 Q505 145 578 145 Q652 145 713.5 172 Q775 199 823 250 Q850 278 871.5 313.5 Q893 349 907.5 388.5 Q922 428 930 469.5 Q938 511 938 553 Q938 618 918 674.5 Q898 731 859.5 772.5 Q821 814 764.5 838 Q708 862 635 862 Q561 862 499 835.5 Q437 809 389 758 Q362 729 340.5 694 Q319 659 304.5 619.5 Q290 580 282 538 Q274 496 274 455 Z M968 1489 L1132 1489 L862 1153 L739 1153 L968 1489 Z M686 1489 L850 1489 L579 1153 L456 1153 L686 1489 Z " />
<glyph glyph-name="oslash" unicode="&#xf8;" horiz-adv-x="1212" d="M831 799 Q794 828 745.5 845 Q697 862 635 862 Q561 862 499 835.5 Q437 809 389 758 Q362 729 340.5 694 Q319 659 304.5 619.5 Q290 580 282 538 Q274 496 274 455 Q274 416 281.5 380 Q289 344 303 313 L831 799 Z M162 184 Q128 238 109 302.5 Q90 367 90 442 Q90 498 100.5 555.5 Q111 613 132 667.5 Q153 722 184 772.5 Q215 823 256 866 Q330 944 429 987 Q528 1030 647 1030 Q741 1030 822.5 1002 Q904 974 967 922 L1090 1034 L1180 942 L1051 823 Q1085 769 1103.5 705 Q1122 641 1122 565 Q1122 509 1111.5 452 Q1101 395 1080 340 Q1059 285 1028 234.5 Q997 184 956 141 Q882 64 783 20.5 Q684 -23 565 -23 Q471 -23 390 5 Q309 33 246 86 L123 -27 L33 66 L162 184 Z M381 209 Q418 180 467 162.5 Q516 145 578 145 Q652 145 713.5 172 Q775 199 823 250 Q850 278 871.5 313.5 Q893 349 907.5 388.5 Q922 428 930 469.5 Q938 511 938 553 Q938 631 909 694 L381 209 Z " />
<glyph glyph-name="oslashacute" unicode="&#x1ff;" horiz-adv-x="1212" d="M831 799 Q794 828 745.5 845 Q697 862 635 862 Q561 862 499 835.5 Q437 809 389 758 Q362 729 340.5 694 Q319 659 304.5 619.5 Q290 580 282 538 Q274 496 274 455 Q274 416 281.5 380 Q289 344 303 313 L831 799 Z M162 184 Q128 238 109 302.5 Q90 367 90 442 Q90 498 100.5 555.5 Q111 613 132 667.5 Q153 722 184 772.5 Q215 823 256 866 Q330 944 429 987 Q528 1030 647 1030 Q741 1030 822.5 1002 Q904 974 967 922 L1090 1034 L1180 942 L1051 823 Q1085 769 1103.5 705 Q1122 641 1122 565 Q1122 509 1111.5 452 Q1101 395 1080 340 Q1059 285 1028 234.5 Q997 184 956 141 Q882 64 783 20.5 Q684 -23 565 -23 Q471 -23 390 5 Q309 33 246 86 L123 -27 L33 66 L162 184 Z M381 209 Q418 180 467 162.5 Q516 145 578 145 Q652 145 713.5 172 Q775 199 823 250 Q850 278 871.5 313.5 Q893 349 907.5 388.5 Q922 428 930 469.5 Q938 511 938 553 Q938 631 909 694 L381 209 Z M729 1153 L587 1153 L805 1489 L1013 1489 L729 1153 Z " />
<glyph glyph-name="oe" unicode="&#x153;" horiz-adv-x="1921" d="M1081 449 Q1082 373 1106.5 315.5 Q1131 258 1174 220 Q1217 182 1275.5 162.5 Q1334 143 1403 143 Q1447 143 1490 150.5 Q1533 158 1573 170 Q1613 182 1648 197.5 Q1683 213 1712 229 L1677 37 Q1645 22 1609.5 10.5 Q1574 -1 1537 -8.5 Q1500 -16 1463.5 -19.5 Q1427 -23 1393 -23 Q1325 -23 1261 -9.5 Q1197 4 1141.5 31.5 Q1086 59 1041 100 Q996 141 965 197 L961 197 Q885 84 777 30.5 Q669 -23 547 -23 Q449 -23 365 9.5 Q281 42 220 102.5 Q159 163 124.5 248.5 Q90 334 90 440 Q90 542 124 648.5 Q158 755 229 842 Q299 926 400 978 Q501 1030 629 1030 Q702 1030 765.5 1012 Q829 994 879 963.5 Q929 933 965.5 891.5 Q1002 850 1022 803 L1026 803 Q1058 854 1101.5 896 Q1145 938 1197.5 968 Q1250 998 1310.5 1014 Q1371 1030 1438 1030 Q1527 1030 1601.5 1001 Q1676 972 1729.5 919 Q1783 866 1813 791 Q1843 716 1843 623 Q1843 581 1837.5 534 Q1832 487 1821 449 L1081 449 Z M274 457 Q274 392 293 335 Q312 278 349 236 Q386 194 439.5 169.5 Q493 145 561 145 Q642 145 707.5 178 Q773 211 821 276 Q863 333 885 406 Q907 479 907 551 Q907 613 889.5 669.5 Q872 726 836.5 768.5 Q801 811 747.5 836.5 Q694 862 623 862 Q544 862 477 829.5 Q410 797 360 731 Q318 674 296 601.5 Q274 529 274 457 Z M1671 614 Q1671 666 1656.5 711.5 Q1642 757 1612.5 791 Q1583 825 1537.5 844.5 Q1492 864 1430 864 Q1369 864 1317.5 844.5 Q1266 825 1224.5 789.5 Q1183 754 1152.5 704.5 Q1122 655 1104 596 L1671 596 L1671 614 Z " />
<glyph glyph-name="racute" unicode="&#x155;" horiz-adv-x="819" d="M252 1008 L436 1008 L406 836 L410 834 Q442 874 486 907.5 Q530 941 579 965 Q628 989 680 1002.5 Q732 1016 780 1016 Q812 1016 844 1010 L813 831 Q802 833 785.5 834.5 Q769 836 752 836 Q643 836 544.5 780 Q446 724 369 627 L258 0 L74 0 L252 1008 Z M534 1153 L392 1153 L610 1489 L818 1489 L534 1153 Z " />
<glyph glyph-name="rcaron" unicode="&#x159;" horiz-adv-x="819" d="M252 1008 L436 1008 L406 836 L410 834 Q442 874 486 907.5 Q530 941 579 965 Q628 989 680 1002.5 Q732 1016 780 1016 Q812 1016 844 1010 L813 831 Q802 833 785.5 834.5 Q769 836 752 836 Q643 836 544.5 780 Q446 724 369 627 L258 0 L74 0 L252 1008 Z M913 1481 L528 1133 L519 1133 L253 1481 L423 1481 L548 1331 L722 1481 L913 1481 Z " />
<glyph glyph-name="rcommaaccent" unicode="&#x157;" horiz-adv-x="819" d="M252 1008 L436 1008 L406 836 L410 834 Q442 874 486 907.5 Q530 941 579 965 Q628 989 680 1002.5 Q732 1016 780 1016 Q812 1016 844 1010 L813 831 Q802 833 785.5 834.5 Q769 836 752 836 Q643 836 544.5 780 Q446 724 369 627 L258 0 L74 0 L252 1008 Z M319 -111 L83 -557 L-56 -557 L135 -111 L319 -111 Z " />
<glyph glyph-name="sacute" unicode="&#x15b;" horiz-adv-x="1004" d="M84 274 Q121 244 166.5 219 Q212 194 261.5 177 Q311 160 362.5 150.5 Q414 141 463 141 Q517 141 559 153 Q601 165 629 188 Q652 207 666 234.5 Q680 262 680 293 Q680 330 661 352 Q642 374 608.5 389 Q575 404 528.5 415 Q482 426 428 440 Q369 455 317.5 474.5 Q266 494 227 522.5 Q188 551 165.5 591.5 Q143 632 143 690 Q143 721 150 754.5 Q157 788 171 819.5 Q185 851 205.5 880.5 Q226 910 252 934 Q309 983 387.5 1006.5 Q466 1030 557 1030 Q650 1030 745.5 1007 Q841 984 920 938 L887 754 Q851 780 808.5 800.5 Q766 821 720.5 835 Q675 849 628 856.5 Q581 864 537 864 Q492 864 455.5 856 Q419 848 393 831 Q367 813 349.5 785 Q332 757 332 723 Q332 687 352.5 665.5 Q373 644 407.5 630 Q442 616 488.5 606.5 Q535 597 586 584 Q643 569 694.5 549.5 Q746 530 784.5 500.5 Q823 471 845.5 428.5 Q868 386 868 326 Q868 264 842.5 196.5 Q817 129 758 78 Q698 25 616.5 1 Q535 -23 442 -23 Q342 -23 239 2.5 Q136 28 51 84 L84 274 Z M630 1153 L488 1153 L706 1489 L914 1489 L630 1153 Z " />
<glyph glyph-name="scircumflex" unicode="&#x15d;" horiz-adv-x="1004" d="M84 274 Q121 244 166.5 219 Q212 194 261.5 177 Q311 160 362.5 150.5 Q414 141 463 141 Q517 141 559 153 Q601 165 629 188 Q652 207 666 234.5 Q680 262 680 293 Q680 330 661 352 Q642 374 608.5 389 Q575 404 528.5 415 Q482 426 428 440 Q369 455 317.5 474.5 Q266 494 227 522.5 Q188 551 165.5 591.5 Q143 632 143 690 Q143 721 150 754.5 Q157 788 171 819.5 Q185 851 205.5 880.5 Q226 910 252 934 Q309 983 387.5 1006.5 Q466 1030 557 1030 Q650 1030 745.5 1007 Q841 984 920 938 L887 754 Q851 780 808.5 800.5 Q766 821 720.5 835 Q675 849 628 856.5 Q581 864 537 864 Q492 864 455.5 856 Q419 848 393 831 Q367 813 349.5 785 Q332 757 332 723 Q332 687 352.5 665.5 Q373 644 407.5 630 Q442 616 488.5 606.5 Q535 597 586 584 Q643 569 694.5 549.5 Q746 530 784.5 500.5 Q823 471 845.5 428.5 Q868 386 868 326 Q868 264 842.5 196.5 Q817 129 758 78 Q698 25 616.5 1 Q535 -23 442 -23 Q342 -23 239 2.5 Q136 28 51 84 L84 274 Z M294 1161 L679 1509 L687 1509 L953 1161 L783 1161 L658 1311 L484 1161 L294 1161 Z " />
<glyph glyph-name="scaron" unicode="&#x161;" horiz-adv-x="1004" d="M84 274 Q121 244 166.5 219 Q212 194 261.5 177 Q311 160 362.5 150.5 Q414 141 463 141 Q517 141 559 153 Q601 165 629 188 Q652 207 666 234.5 Q680 262 680 293 Q680 330 661 352 Q642 374 608.5 389 Q575 404 528.5 415 Q482 426 428 440 Q369 455 317.5 474.5 Q266 494 227 522.5 Q188 551 165.5 591.5 Q143 632 143 690 Q143 721 150 754.5 Q157 788 171 819.5 Q185 851 205.5 880.5 Q226 910 252 934 Q309 983 387.5 1006.5 Q466 1030 557 1030 Q650 1030 745.5 1007 Q841 984 920 938 L887 754 Q851 780 808.5 800.5 Q766 821 720.5 835 Q675 849 628 856.5 Q581 864 537 864 Q492 864 455.5 856 Q419 848 393 831 Q367 813 349.5 785 Q332 757 332 723 Q332 687 352.5 665.5 Q373 644 407.5 630 Q442 616 488.5 606.5 Q535 597 586 584 Q643 569 694.5 549.5 Q746 530 784.5 500.5 Q823 471 845.5 428.5 Q868 386 868 326 Q868 264 842.5 196.5 Q817 129 758 78 Q698 25 616.5 1 Q535 -23 442 -23 Q342 -23 239 2.5 Q136 28 51 84 L84 274 Z M1009 1481 L624 1133 L615 1133 L349 1481 L519 1481 L644 1331 L818 1481 L1009 1481 Z " />
<glyph glyph-name="scedilla" unicode="&#x15f;" horiz-adv-x="1004" d="M887 754 Q851 780 808.5 800.5 Q766 821 720.5 835 Q675 849 628 856.5 Q581 864 537 864 Q492 864 455.5 856 Q419 848 393 831 Q367 813 349.5 785 Q332 757 332 723 Q332 687 352.5 665.5 Q373 644 407.5 630 Q442 616 488.5 606.5 Q535 597 586 584 Q643 569 694.5 549.5 Q746 530 784.5 500.5 Q823 471 845.5 428.5 Q868 386 868 326 Q868 264 842.5 196.5 Q817 129 758 78 Q701 28 625.5 4.5 Q550 -19 463 -23 L428 -92 Q459 -102 486 -117 Q513 -132 533 -152.5 Q553 -173 564 -200.5 Q575 -228 575 -262 Q575 -304 559 -339 Q543 -374 514.5 -399.5 Q486 -425 446.5 -439 Q407 -453 360 -453 Q314 -453 266.5 -438.5 Q219 -424 176 -395 L225 -297 Q251 -316 284.5 -332 Q318 -348 360 -348 Q378 -348 395 -344 Q412 -340 425.5 -331 Q439 -322 447 -308 Q455 -294 455 -274 Q455 -248 438 -229.5 Q421 -211 395.5 -198 Q370 -185 341.5 -177.5 Q313 -170 289 -166 L362 -18 Q281 -10 200 14.5 Q119 39 51 84 L84 274 Q121 244 166.5 219 Q212 194 261.5 177 Q311 160 362.5 150.5 Q414 141 463 141 Q517 141 559 153 Q601 165 629 188 Q652 207 666 234.5 Q680 262 680 293 Q680 330 661 352 Q642 374 608.5 389 Q575 404 528.5 415 Q482 426 428 440 Q369 455 317.5 474.5 Q266 494 227 522.5 Q188 551 165.5 591.5 Q143 632 143 690 Q143 721 150 754.5 Q157 788 171 819.5 Q185 851 205.5 880.5 Q226 910 252 934 Q309 983 387.5 1006.5 Q466 1030 557 1030 Q650 1030 745.5 1007 Q841 984 920 938 L887 754 Z " />
<glyph glyph-name="scommaaccent" unicode="&#x219;" horiz-adv-x="1004" d="M84 274 Q121 244 166.5 219 Q212 194 261.5 177 Q311 160 362.5 150.5 Q414 141 463 141 Q517 141 559 153 Q601 165 629 188 Q652 207 666 234.5 Q680 262 680 293 Q680 330 661 352 Q642 374 608.5 389 Q575 404 528.5 415 Q482 426 428 440 Q369 455 317.5 474.5 Q266 494 227 522.5 Q188 551 165.5 591.5 Q143 632 143 690 Q143 721 150 754.5 Q157 788 171 819.5 Q185 851 205.5 880.5 Q226 910 252 934 Q309 983 387.5 1006.5 Q466 1030 557 1030 Q650 1030 745.5 1007 Q841 984 920 938 L887 754 Q851 780 808.5 800.5 Q766 821 720.5 835 Q675 849 628 856.5 Q581 864 537 864 Q492 864 455.5 856 Q419 848 393 831 Q367 813 349.5 785 Q332 757 332 723 Q332 687 352.5 665.5 Q373 644 407.5 630 Q442 616 488.5 606.5 Q535 597 586 584 Q643 569 694.5 549.5 Q746 530 784.5 500.5 Q823 471 845.5 428.5 Q868 386 868 326 Q868 264 842.5 196.5 Q817 129 758 78 Q698 25 616.5 1 Q535 -23 442 -23 Q342 -23 239 2.5 Q136 28 51 84 L84 274 Z M505 -111 L269 -557 L130 -557 L321 -111 L505 -111 Z " />
<glyph glyph-name="germandbls" unicode="&#xdf;" horiz-adv-x="1266" d="M934 893 Q1055 845 1118.5 750.5 Q1182 656 1182 526 Q1182 478 1172.5 425 Q1163 372 1142 319.5 Q1121 267 1088 217 Q1055 167 1008 123 Q933 54 835.5 15.5 Q738 -23 629 -23 Q569 -23 514 -11.5 Q459 0 410 18 L438 186 Q482 168 529.5 155.5 Q577 143 633 143 Q702 143 764 165.5 Q826 188 879 238 Q934 290 964.5 362 Q995 434 995 514 Q995 578 975 629.5 Q955 681 917 718 Q879 755 822.5 775 Q766 795 694 795 L602 795 L631 956 L709 956 Q766 956 815 976.5 Q864 997 899.5 1033 Q935 1069 955 1118.5 Q975 1168 975 1227 Q975 1323 913 1370 Q882 1393 836.5 1406 Q791 1419 737 1419 Q631 1419 560 1363.5 Q489 1308 469 1194 L258 0 L74 0 L287 1206 Q303 1296 343 1367 Q383 1438 443 1486.5 Q503 1535 581.5 1561 Q660 1587 754 1587 Q838 1587 919 1565 Q1000 1543 1057 1495 Q1106 1453 1134.5 1394 Q1163 1335 1163 1253 Q1163 1196 1148 1142.5 Q1133 1089 1104 1042.5 Q1075 996 1032.5 958.5 Q990 921 934 897 L934 893 Z " />
<glyph glyph-name="tcaron" unicode="&#x165;" horiz-adv-x="795" d="M649 8 Q615 -6 575 -14.5 Q535 -23 492 -23 Q426 -23 369 -4.5 Q312 14 270 50.5 Q228 87 204 142 Q180 197 180 270 Q180 298 183.5 339.5 Q187 381 195 424 L268 842 L68 842 L66 846 L520 1264 L524 1262 L479 1008 L825 1008 L797 842 L451 842 L377 426 Q369 383 365.5 353.5 Q362 324 362 299 Q362 230 401 187.5 Q440 145 524 145 Q565 145 605 155 Q645 165 680 180 L649 8 Z M1012 1581 L776 1135 L637 1135 L828 1581 L1012 1581 Z " />
<glyph glyph-name="tcommaaccent" unicode="&#x163;" horiz-adv-x="795" d="M377 426 Q369 383 365.5 353.5 Q362 324 362 299 Q362 230 401 187.5 Q440 145 524 145 Q565 145 605 155 Q645 165 680 180 L649 8 Q615 -6 575 -14.5 Q535 -23 492 -23 Q475 -23 458 -21 Q441 -19 424 -16 L387 -92 Q418 -102 445.5 -117 Q473 -132 492.5 -152.5 Q512 -173 523.5 -200.5 Q535 -228 535 -262 Q535 -304 519 -339 Q503 -374 474 -399.5 Q445 -425 405.5 -439 Q366 -453 319 -453 Q273 -453 226 -438.5 Q179 -424 135 -395 L184 -297 Q210 -316 243.5 -332 Q277 -348 319 -348 Q337 -348 354 -344 Q371 -340 384.5 -331 Q398 -322 406 -308 Q414 -294 414 -274 Q414 -248 397 -229.5 Q380 -211 354.5 -198 Q329 -185 300.5 -177.5 Q272 -170 248 -166 L336 10 Q265 42 222.5 106.5 Q180 171 180 270 Q180 298 183.5 339.5 Q187 381 195 424 L268 842 L68 842 L66 846 L520 1264 L524 1262 L479 1008 L825 1008 L797 842 L451 842 L377 426 Z " />
<glyph glyph-name="uni021B" unicode="&#x21b;" horiz-adv-x="795" d="M649 8 Q615 -6 575 -14.5 Q535 -23 492 -23 Q426 -23 369 -4.5 Q312 14 270 50.5 Q228 87 204 142 Q180 197 180 270 Q180 298 183.5 339.5 Q187 381 195 424 L268 842 L68 842 L66 846 L520 1264 L524 1262 L479 1008 L825 1008 L797 842 L451 842 L377 426 Q369 383 365.5 353.5 Q362 324 362 299 Q362 230 401 187.5 Q440 145 524 145 Q565 145 605 155 Q645 165 680 180 L649 8 Z M497 -111 L261 -557 L122 -557 L313 -111 L497 -111 Z " />
<glyph glyph-name="tbar" unicode="&#x167;" horiz-adv-x="795" d="M451 842 L414 633 L760 633 L731 467 L385 467 L377 420 Q371 386 366.5 355 Q362 324 362 299 Q362 230 401 187.5 Q440 145 524 145 Q565 145 605 155 Q645 165 680 180 L649 8 Q615 -6 575 -14.5 Q535 -23 492 -23 Q426 -23 369 -4.5 Q312 14 270 50.5 Q228 87 204 142 Q180 197 180 270 Q180 298 183.5 339.5 Q187 381 195 424 L203 467 L2 467 L0 471 L242 692 L268 842 L68 842 L66 846 L520 1264 L524 1262 L479 1008 L825 1008 L797 842 L451 842 Z " />
<glyph glyph-name="ugrave" unicode="&#xf9;" horiz-adv-x="1200" d="M780 119 Q744 92 704.5 66.5 Q665 41 621.5 21 Q578 1 530.5 -11 Q483 -23 432 -23 Q367 -23 310 -2.5 Q253 18 211 56.5 Q169 95 145 151 Q121 207 121 279 Q121 309 125 350.5 Q129 392 137 438 L238 1008 L422 1008 L324 451 Q316 404 312.5 368.5 Q309 333 309 311 Q309 274 318.5 244 Q328 214 348 192.5 Q368 171 399.5 159 Q431 147 475 147 Q562 147 648 191.5 Q734 236 819 311 L942 1008 L1126 1008 L948 0 L764 0 L784 117 L780 119 Z M537 1489 L741 1489 L840 1153 L703 1153 L537 1489 Z " />
<glyph glyph-name="uacute" unicode="&#xfa;" horiz-adv-x="1200" d="M780 119 Q744 92 704.5 66.5 Q665 41 621.5 21 Q578 1 530.5 -11 Q483 -23 432 -23 Q367 -23 310 -2.5 Q253 18 211 56.5 Q169 95 145 151 Q121 207 121 279 Q121 309 125 350.5 Q129 392 137 438 L238 1008 L422 1008 L324 451 Q316 404 312.5 368.5 Q309 333 309 311 Q309 274 318.5 244 Q328 214 348 192.5 Q368 171 399.5 159 Q431 147 475 147 Q562 147 648 191.5 Q734 236 819 311 L942 1008 L1126 1008 L948 0 L764 0 L784 117 L780 119 Z M713 1153 L571 1153 L789 1489 L997 1489 L713 1153 Z " />
<glyph glyph-name="ucircumflex" unicode="&#xfb;" horiz-adv-x="1200" d="M780 119 Q744 92 704.5 66.5 Q665 41 621.5 21 Q578 1 530.5 -11 Q483 -23 432 -23 Q367 -23 310 -2.5 Q253 18 211 56.5 Q169 95 145 151 Q121 207 121 279 Q121 309 125 350.5 Q129 392 137 438 L238 1008 L422 1008 L324 451 Q316 404 312.5 368.5 Q309 333 309 311 Q309 274 318.5 244 Q328 214 348 192.5 Q368 171 399.5 159 Q431 147 475 147 Q562 147 648 191.5 Q734 236 819 311 L942 1008 L1126 1008 L948 0 L764 0 L784 117 L780 119 Z M377 1161 L762 1509 L770 1509 L1036 1161 L866 1161 L741 1311 L567 1161 L377 1161 Z " />
<glyph glyph-name="utilde" unicode="&#x169;" horiz-adv-x="1200" d="M780 119 Q744 92 704.5 66.5 Q665 41 621.5 21 Q578 1 530.5 -11 Q483 -23 432 -23 Q367 -23 310 -2.5 Q253 18 211 56.5 Q169 95 145 151 Q121 207 121 279 Q121 309 125 350.5 Q129 392 137 438 L238 1008 L422 1008 L324 451 Q316 404 312.5 368.5 Q309 333 309 311 Q309 274 318.5 244 Q328 214 348 192.5 Q368 171 399.5 159 Q431 147 475 147 Q562 147 648 191.5 Q734 236 819 311 L942 1008 L1126 1008 L948 0 L764 0 L784 117 L780 119 Z M1040 1276 Q1013 1245 969.5 1222.5 Q926 1200 870 1200 Q830 1200 791.5 1215 Q753 1230 707 1253 Q666 1273 634 1284.5 Q602 1296 567 1296 Q540 1296 516 1287.5 Q492 1279 471.5 1264.5 Q451 1250 434 1232 Q417 1214 404 1196 L399 1198 L430 1372 Q458 1403 501 1425.5 Q544 1448 600 1448 Q640 1448 679 1433 Q718 1418 764 1395 Q804 1375 836 1363.5 Q868 1352 903 1352 Q931 1352 955 1360.5 Q979 1369 999 1383.5 Q1019 1398 1036 1416 Q1053 1434 1067 1452 L1071 1450 L1040 1276 Z " />
<glyph glyph-name="udieresis" unicode="&#xfc;" horiz-adv-x="1200" d="M780 119 Q744 92 704.5 66.5 Q665 41 621.5 21 Q578 1 530.5 -11 Q483 -23 432 -23 Q367 -23 310 -2.5 Q253 18 211 56.5 Q169 95 145 151 Q121 207 121 279 Q121 309 125 350.5 Q129 392 137 438 L238 1008 L422 1008 L324 451 Q316 404 312.5 368.5 Q309 333 309 311 Q309 274 318.5 244 Q328 214 348 192.5 Q368 171 399.5 159 Q431 147 475 147 Q562 147 648 191.5 Q734 236 819 311 L942 1008 L1126 1008 L948 0 L764 0 L784 117 L780 119 Z M928 1208 Q905 1208 885 1216.5 Q865 1225 850.5 1239 Q836 1253 827.5 1272.5 Q819 1292 819 1315 Q819 1340 829 1362 Q839 1384 855.5 1400 Q872 1416 894.5 1425 Q917 1434 942 1434 Q965 1434 985 1425.5 Q1005 1417 1019.5 1402.5 Q1034 1388 1042.5 1368.5 Q1051 1349 1051 1327 Q1051 1302 1041 1280 Q1031 1258 1014.5 1242 Q998 1226 975.5 1217 Q953 1208 928 1208 Z M531 1208 Q508 1208 488 1216.5 Q468 1225 453.5 1239 Q439 1253 430.5 1272.5 Q422 1292 422 1315 Q422 1340 431.5 1362 Q441 1384 458 1400 Q475 1416 497 1425 Q519 1434 545 1434 Q568 1434 587.5 1425.5 Q607 1417 621.5 1402.5 Q636 1388 644.5 1368.5 Q653 1349 653 1327 Q653 1302 643.5 1280 Q634 1258 617.5 1242 Q601 1226 578.5 1217 Q556 1208 531 1208 Z " />
<glyph glyph-name="umacron" unicode="&#x16b;" horiz-adv-x="1200" d="M780 119 Q744 92 704.5 66.5 Q665 41 621.5 21 Q578 1 530.5 -11 Q483 -23 432 -23 Q367 -23 310 -2.5 Q253 18 211 56.5 Q169 95 145 151 Q121 207 121 279 Q121 309 125 350.5 Q129 392 137 438 L238 1008 L422 1008 L324 451 Q316 404 312.5 368.5 Q309 333 309 311 Q309 274 318.5 244 Q328 214 348 192.5 Q368 171 399.5 159 Q431 147 475 147 Q562 147 648 191.5 Q734 236 819 311 L942 1008 L1126 1008 L948 0 L764 0 L784 117 L780 119 Z M467 1391 L1026 1391 L1002 1251 L442 1251 L467 1391 Z " />
<glyph glyph-name="ubreve" unicode="&#x16d;" horiz-adv-x="1200" d="M780 119 Q744 92 704.5 66.5 Q665 41 621.5 21 Q578 1 530.5 -11 Q483 -23 432 -23 Q367 -23 310 -2.5 Q253 18 211 56.5 Q169 95 145 151 Q121 207 121 279 Q121 309 125 350.5 Q129 392 137 438 L238 1008 L422 1008 L324 451 Q316 404 312.5 368.5 Q309 333 309 311 Q309 274 318.5 244 Q328 214 348 192.5 Q368 171 399.5 159 Q431 147 475 147 Q562 147 648 191.5 Q734 236 819 311 L942 1008 L1126 1008 L948 0 L764 0 L784 117 L780 119 Z M1043 1475 Q1031 1397 1001 1340 Q971 1283 928.5 1245.5 Q886 1208 833.5 1189.5 Q781 1171 725 1171 Q670 1171 624 1188.5 Q578 1206 545 1238 Q512 1270 493.5 1315 Q475 1360 475 1415 Q475 1446 481 1475 L598 1475 Q596 1465 595 1454.5 Q594 1444 594 1432 Q594 1402 602.5 1375.5 Q611 1349 629 1329 Q647 1309 674 1297.5 Q701 1286 739 1286 Q779 1286 810 1299.5 Q841 1313 863.5 1337.5 Q886 1362 901.5 1397 Q917 1432 926 1475 L1043 1475 Z " />
<glyph glyph-name="uring" unicode="&#x16f;" horiz-adv-x="1200" d="M780 119 Q744 92 704.5 66.5 Q665 41 621.5 21 Q578 1 530.5 -11 Q483 -23 432 -23 Q367 -23 310 -2.5 Q253 18 211 56.5 Q169 95 145 151 Q121 207 121 279 Q121 309 125 350.5 Q129 392 137 438 L238 1008 L422 1008 L324 451 Q316 404 312.5 368.5 Q309 333 309 311 Q309 274 318.5 244 Q328 214 348 192.5 Q368 171 399.5 159 Q431 147 475 147 Q562 147 648 191.5 Q734 236 819 311 L942 1008 L1126 1008 L948 0 L764 0 L784 117 L780 119 Z M729 1128 Q683 1128 642.5 1143 Q602 1158 571.5 1186 Q541 1214 523.5 1253.5 Q506 1293 506 1341 Q506 1390 525 1436 Q544 1482 577 1517.5 Q610 1553 656 1574 Q702 1595 756 1595 Q802 1595 842.5 1580 Q883 1565 913.5 1537 Q944 1509 961.5 1469 Q979 1429 979 1380 Q979 1331 960 1285.5 Q941 1240 908 1205 Q875 1170 829 1149 Q783 1128 729 1128 Z M733 1231 Q760 1231 785 1241.5 Q810 1252 828.5 1271 Q847 1290 858.5 1316 Q870 1342 870 1374 Q870 1396 863 1417.5 Q856 1439 841.5 1456 Q827 1473 805 1483 Q783 1493 752 1493 Q725 1493 700 1482 Q675 1471 656 1452 Q637 1433 625.5 1406 Q614 1379 614 1348 Q614 1326 621 1305 Q628 1284 642.5 1267.5 Q657 1251 679.5 1241 Q702 1231 733 1231 Z " />
<glyph glyph-name="uhungarumlaut" unicode="&#x171;" horiz-adv-x="1200" d="M780 119 Q744 92 704.5 66.5 Q665 41 621.5 21 Q578 1 530.5 -11 Q483 -23 432 -23 Q367 -23 310 -2.5 Q253 18 211 56.5 Q169 95 145 151 Q121 207 121 279 Q121 309 125 350.5 Q129 392 137 438 L238 1008 L422 1008 L324 451 Q316 404 312.5 368.5 Q309 333 309 311 Q309 274 318.5 244 Q328 214 348 192.5 Q368 171 399.5 159 Q431 147 475 147 Q562 147 648 191.5 Q734 236 819 311 L942 1008 L1126 1008 L948 0 L764 0 L784 117 L780 119 Z M952 1489 L1116 1489 L846 1153 L723 1153 L952 1489 Z M670 1489 L834 1489 L563 1153 L440 1153 L670 1489 Z " />
<glyph glyph-name="uogonek" unicode="&#x173;" horiz-adv-x="1200" d="M784 117 L780 119 Q744 92 704.5 66.5 Q665 41 621.5 21 Q578 1 530.5 -11 Q483 -23 432 -23 Q367 -23 310 -2.5 Q253 18 211 56.5 Q169 95 145 151 Q121 207 121 279 Q121 309 125 350.5 Q129 392 137 438 L238 1008 L422 1008 L324 451 Q316 404 312.5 368.5 Q309 333 309 311 Q309 274 318.5 244 Q328 214 348 192.5 Q368 171 399.5 159 Q431 147 475 147 Q562 147 648 191.5 Q734 236 819 311 L942 1008 L1126 1008 L948 0 Q910 -21 870 -48.5 Q830 -76 797 -109.5 Q764 -143 742.5 -181 Q721 -219 721 -260 Q721 -300 747.5 -324 Q774 -348 829 -348 Q842 -348 857.5 -346.5 Q873 -345 887 -342 L866 -467 Q851 -469 834 -471 Q817 -473 797 -473 Q752 -473 710 -462 Q668 -451 635.5 -428 Q603 -405 583 -369.5 Q563 -334 563 -285 Q563 -240 579 -200 Q595 -160 622 -124 Q649 -88 685.5 -57 Q722 -26 764 0 L784 117 Z " />
<glyph glyph-name="wgrave" unicode="&#x1e81;" horiz-adv-x="1686" d="M416 596 Q430 539 444.5 476.5 Q459 414 473 354 L479 354 Q517 414 555.5 473 Q594 532 639 600 L936 1049 L940 1049 L1073 600 Q1092 538 1109 478 Q1126 418 1145 352 L1149 352 Q1186 415 1221.5 475.5 Q1257 536 1294 598 L1540 1008 L1743 1008 L1100 -45 L1096 -45 L946 446 Q929 502 912.5 559 Q896 616 881 670 L877 670 Q842 617 805 560.5 Q768 504 731 449 L401 -45 L397 -45 L121 1008 L315 1008 L416 596 Z M783 1489 L987 1489 L1086 1153 L949 1153 L783 1489 Z " />
<glyph glyph-name="wacute" unicode="&#x1e83;" horiz-adv-x="1686" d="M416 596 Q430 539 444.5 476.5 Q459 414 473 354 L479 354 Q517 414 555.5 473 Q594 532 639 600 L936 1049 L940 1049 L1073 600 Q1092 538 1109 478 Q1126 418 1145 352 L1149 352 Q1186 415 1221.5 475.5 Q1257 536 1294 598 L1540 1008 L1743 1008 L1100 -45 L1096 -45 L946 446 Q929 502 912.5 559 Q896 616 881 670 L877 670 Q842 617 805 560.5 Q768 504 731 449 L401 -45 L397 -45 L121 1008 L315 1008 L416 596 Z M959 1153 L817 1153 L1035 1489 L1243 1489 L959 1153 Z " />
<glyph glyph-name="wcircumflex" unicode="&#x175;" horiz-adv-x="1686" d="M416 596 Q430 539 444.5 476.5 Q459 414 473 354 L479 354 Q517 414 555.5 473 Q594 532 639 600 L936 1049 L940 1049 L1073 600 Q1092 538 1109 478 Q1126 418 1145 352 L1149 352 Q1186 415 1221.5 475.5 Q1257 536 1294 598 L1540 1008 L1743 1008 L1100 -45 L1096 -45 L946 446 Q929 502 912.5 559 Q896 616 881 670 L877 670 Q842 617 805 560.5 Q768 504 731 449 L401 -45 L397 -45 L121 1008 L315 1008 L416 596 Z M623 1161 L1008 1509 L1016 1509 L1282 1161 L1112 1161 L987 1311 L813 1161 L623 1161 Z " />
<glyph glyph-name="wdieresis" unicode="&#x1e85;" horiz-adv-x="1686" d="M416 596 Q430 539 444.5 476.5 Q459 414 473 354 L479 354 Q517 414 555.5 473 Q594 532 639 600 L936 1049 L940 1049 L1073 600 Q1092 538 1109 478 Q1126 418 1145 352 L1149 352 Q1186 415 1221.5 475.5 Q1257 536 1294 598 L1540 1008 L1743 1008 L1100 -45 L1096 -45 L946 446 Q929 502 912.5 559 Q896 616 881 670 L877 670 Q842 617 805 560.5 Q768 504 731 449 L401 -45 L397 -45 L121 1008 L315 1008 L416 596 Z M1178 1208 Q1155 1208 1135 1216.5 Q1115 1225 1100.5 1239 Q1086 1253 1077.5 1272.5 Q1069 1292 1069 1315 Q1069 1340 1079 1362 Q1089 1384 1105.5 1400 Q1122 1416 1144.5 1425 Q1167 1434 1192 1434 Q1215 1434 1235 1425.5 Q1255 1417 1269.5 1402.5 Q1284 1388 1292.5 1368.5 Q1301 1349 1301 1327 Q1301 1302 1291 1280 Q1281 1258 1264.5 1242 Q1248 1226 1225.5 1217 Q1203 1208 1178 1208 Z M781 1208 Q758 1208 738 1216.5 Q718 1225 703.5 1239 Q689 1253 680.5 1272.5 Q672 1292 672 1315 Q672 1340 681.5 1362 Q691 1384 708 1400 Q725 1416 747 1425 Q769 1434 795 1434 Q818 1434 837.5 1425.5 Q857 1417 871.5 1402.5 Q886 1388 894.5 1368.5 Q903 1349 903 1327 Q903 1302 893.5 1280 Q884 1258 867.5 1242 Q851 1226 828.5 1217 Q806 1208 781 1208 Z " />
<glyph glyph-name="ygrave" unicode="&#x1ef3;" horiz-adv-x="1110" d="M18 -451 L393 115 L129 1008 L328 1008 L430 653 Q455 568 478.5 482 Q502 396 522 315 L526 315 Q577 399 630.5 485 Q684 571 739 657 L963 1008 L1163 1008 L225 -451 L18 -451 Z M504 1489 L708 1489 L807 1153 L670 1153 L504 1489 Z " />
<glyph glyph-name="yacute" unicode="&#xfd;" horiz-adv-x="1110" d="M18 -451 L393 115 L129 1008 L328 1008 L430 653 Q455 568 478.5 482 Q502 396 522 315 L526 315 Q577 399 630.5 485 Q684 571 739 657 L963 1008 L1163 1008 L225 -451 L18 -451 Z M680 1153 L538 1153 L756 1489 L964 1489 L680 1153 Z " />
<glyph glyph-name="ycircumflex" unicode="&#x177;" horiz-adv-x="1110" d="M18 -451 L393 115 L129 1008 L328 1008 L430 653 Q455 568 478.5 482 Q502 396 522 315 L526 315 Q577 399 630.5 485 Q684 571 739 657 L963 1008 L1163 1008 L225 -451 L18 -451 Z M344 1161 L729 1509 L737 1509 L1003 1161 L833 1161 L708 1311 L534 1161 L344 1161 Z " />
<glyph glyph-name="ydieresis" unicode="&#xff;" horiz-adv-x="1110" d="M18 -451 L393 115 L129 1008 L328 1008 L430 653 Q455 568 478.5 482 Q502 396 522 315 L526 315 Q577 399 630.5 485 Q684 571 739 657 L963 1008 L1163 1008 L225 -451 L18 -451 Z M895 1208 Q872 1208 852 1216.5 Q832 1225 817.5 1239 Q803 1253 794.5 1272.5 Q786 1292 786 1315 Q786 1340 796 1362 Q806 1384 822.5 1400 Q839 1416 861.5 1425 Q884 1434 909 1434 Q932 1434 952 1425.5 Q972 1417 986.5 1402.5 Q1001 1388 1009.5 1368.5 Q1018 1349 1018 1327 Q1018 1302 1008 1280 Q998 1258 981.5 1242 Q965 1226 942.5 1217 Q920 1208 895 1208 Z M498 1208 Q475 1208 455 1216.5 Q435 1225 420.5 1239 Q406 1253 397.5 1272.5 Q389 1292 389 1315 Q389 1340 398.5 1362 Q408 1384 425 1400 Q442 1416 464 1425 Q486 1434 512 1434 Q535 1434 554.5 1425.5 Q574 1417 588.5 1402.5 Q603 1388 611.5 1368.5 Q620 1349 620 1327 Q620 1302 610.5 1280 Q601 1258 584.5 1242 Q568 1226 545.5 1217 Q523 1208 498 1208 Z " />
<glyph glyph-name="zacute" unicode="&#x17a;" horiz-adv-x="989" d="M-39 4 L664 836 L662 840 L164 840 L193 1008 L1028 1008 L1030 1004 L326 172 L328 168 L868 168 L840 0 L-37 0 L-39 4 Z M620 1153 L478 1153 L696 1489 L904 1489 L620 1153 Z " />
<glyph glyph-name="zcaron" unicode="&#x17e;" horiz-adv-x="989" d="M-39 4 L664 836 L662 840 L164 840 L193 1008 L1028 1008 L1030 1004 L326 172 L328 168 L868 168 L840 0 L-37 0 L-39 4 Z M999 1481 L614 1133 L605 1133 L339 1481 L509 1481 L634 1331 L808 1481 L999 1481 Z " />
<glyph glyph-name="zdotaccent" unicode="&#x17c;" horiz-adv-x="989" d="M-39 4 L664 836 L662 840 L164 840 L193 1008 L1028 1008 L1030 1004 L326 172 L328 168 L868 168 L840 0 L-37 0 L-39 4 Z M636 1208 Q613 1208 593.5 1216.5 Q574 1225 559.5 1239 Q545 1253 536.5 1272.5 Q528 1292 528 1315 Q528 1340 537.5 1362 Q547 1384 564 1400 Q581 1416 603 1425 Q625 1434 651 1434 Q674 1434 693.5 1425.5 Q713 1417 727.5 1402.5 Q742 1388 750.5 1368.5 Q759 1349 759 1327 Q759 1302 749.5 1280 Q740 1258 723 1242 Q706 1226 683.5 1217 Q661 1208 636 1208 Z " />
<glyph glyph-name="eng" unicode="&#x14b;" horiz-adv-x="1212" d="M250 1008 L434 1008 L414 885 L418 883 Q456 913 497.5 939.5 Q539 966 584 986.5 Q629 1007 677.5 1018.5 Q726 1030 778 1030 Q845 1030 901 1009 Q957 988 997 948 Q1037 908 1059 851 Q1081 794 1081 721 Q1081 695 1077.5 662 Q1074 629 1065 580 L940 -133 Q932 -178 922.5 -213.5 Q913 -249 901.5 -276.5 Q890 -304 876 -326 Q862 -348 846 -367 Q796 -421 731.5 -443 Q667 -465 598 -465 Q561 -465 522 -459 Q483 -453 449 -442 L477 -274 Q505 -282 537 -289.5 Q569 -297 598 -297 Q639 -297 666.5 -283.5 Q694 -270 712 -246 Q730 -222 741 -187.5 Q752 -153 760 -111 L879 567 Q887 609 890 637.5 Q893 666 893 688 Q893 765 851 811.5 Q809 858 717 858 Q674 858 632 846 Q590 834 548.5 813 Q507 792 465 763 Q423 734 381 700 L258 0 L74 0 L250 1008 Z " />
<glyph glyph-name="eth" unicode="&#xf0;" horiz-adv-x="1245" d="M430 1235 L668 1298 Q589 1375 485 1440 L616 1550 Q686 1502 743 1451.5 Q800 1401 850 1346 L1071 1405 L1071 1274 L938 1237 Q1043 1088 1089 932 Q1135 776 1135 625 Q1135 559 1126 493.5 Q1117 428 1097.5 366 Q1078 304 1047.5 248 Q1017 192 973 145 Q902 70 800.5 23.5 Q699 -23 578 -23 Q477 -23 390.5 10 Q304 43 240 103 Q176 163 140 247 Q104 331 104 432 Q104 488 115.5 545.5 Q127 603 150 657.5 Q173 712 207.5 762 Q242 812 287 854 Q355 916 444 952.5 Q533 989 629 989 Q669 989 710.5 981.5 Q752 974 790 959 Q828 944 861 921.5 Q894 899 918 868 L922 870 Q900 955 860.5 1036 Q821 1117 762 1192 L430 1104 L430 1235 Z M289 453 Q289 389 308.5 333 Q328 277 366 235 Q404 193 460 169 Q516 145 588 145 Q662 145 718 169.5 Q774 194 819 236 Q876 290 909 365.5 Q942 441 942 526 Q941 593 920 649 Q899 705 860 745 Q821 785 765 807 Q709 829 639 829 Q564 829 509 805.5 Q454 782 412 743 Q350 686 319.5 609.5 Q289 533 289 453 Z " />
<glyph glyph-name="thorn" unicode="&#xfe;" horiz-adv-x="1184" d="M350 1565 L535 1565 L424 948 L428 946 Q481 983 545 1006.5 Q609 1030 686 1030 Q774 1030 848.5 998 Q923 966 977.5 907.5 Q1032 849 1063 766.5 Q1094 684 1094 584 Q1094 527 1083.5 468 Q1073 409 1052 352.5 Q1031 296 999 243.5 Q967 191 924 147 Q840 62 726 19.5 Q612 -23 481 -23 Q416 -23 362 -12.5 Q308 -2 264 12 L260 10 L178 -451 L-6 -451 L350 1565 Z M289 180 Q334 163 386.5 151 Q439 139 498 139 Q597 139 670.5 172 Q744 205 797 262 Q850 322 879.5 403.5 Q909 485 909 569 Q909 638 890 693 Q871 748 836.5 786 Q802 824 754.5 844 Q707 864 649 864 Q583 864 516 840 Q449 816 393 774 L289 180 Z " />
<glyph glyph-name="longs" unicode="&#x17f;" horiz-adv-x="606" d="M289 842 L47 842 L45 846 L221 1008 L317 1008 L358 1241 Q375 1338 410 1400.5 Q445 1463 498 1505 Q553 1550 621 1568.5 Q689 1587 752 1587 Q804 1587 848.5 1578 Q893 1569 928 1556 L899 1391 Q864 1403 826.5 1411 Q789 1419 752 1419 Q707 1419 674 1408 Q641 1397 616 1378 Q603 1368 592 1355 Q581 1342 571.5 1323 Q562 1304 554 1277 Q546 1250 539 1212 L324 0 L139 0 L289 842 Z " />
<glyph glyph-name="ampersand" unicode="&#x26;" horiz-adv-x="1577" d="M1608 913 L1389 913 Q1381 847 1371 778.5 Q1361 710 1350 651 Q1335 575 1317 506 Q1299 437 1273.5 374.5 Q1248 312 1212.5 257 Q1177 202 1128 154 Q1039 67 918.5 22 Q798 -23 651 -23 Q536 -23 440 5 Q344 33 268 90 Q193 147 154 226 Q115 305 115 401 Q115 492 147.5 573.5 Q180 655 239.5 721 Q299 787 383 834 Q467 881 571 903 L336 1479 L338 1483 L1094 1483 L1063 1311 L606 1311 L604 1307 L813 797 L811 793 Q693 781 599.5 752 Q506 723 441 677 Q376 631 341.5 568.5 Q307 506 307 426 Q307 364 333.5 313 Q360 262 408 225 Q502 152 672 152 Q783 152 869.5 187 Q956 222 1016 287 Q1047 321 1071 361 Q1095 401 1113.5 449 Q1132 497 1146 553 Q1160 609 1171 674 Q1182 736 1190 792 Q1198 848 1204 913 L999 913 L1028 1081 L1636 1081 L1608 913 Z " />
<glyph glyph-name="grave" unicode="&#x60;" horiz-adv-x="1016" d="M455 1489 L659 1489 L758 1153 L621 1153 L455 1489 Z " />
<glyph glyph-name="acute" unicode="&#xb4;" horiz-adv-x="1016" d="M631 1153 L489 1153 L707 1489 L915 1489 L631 1153 Z " />
<glyph glyph-name="circumflex" unicode="&#x2c6;" horiz-adv-x="1016" d="M295 1161 L680 1509 L688 1509 L954 1161 L784 1161 L659 1311 L485 1161 L295 1161 Z " />
<glyph glyph-name="caron" unicode="&#x2c7;" horiz-adv-x="1016" d="M1010 1481 L625 1133 L616 1133 L350 1481 L520 1481 L645 1331 L819 1481 L1010 1481 Z " />
<glyph glyph-name="commaaccent" unicode="&#xf6c3;" horiz-adv-x="1016" d="M506 -111 L270 -557 L131 -557 L322 -111 L506 -111 Z " />
<glyph glyph-name="tilde" unicode="&#x2dc;" horiz-adv-x="1016" d="M958 1276 Q931 1245 887.5 1222.5 Q844 1200 788 1200 Q748 1200 709.5 1215 Q671 1230 625 1253 Q584 1273 552 1284.5 Q520 1296 485 1296 Q458 1296 434 1287.5 Q410 1279 389.5 1264.5 Q369 1250 352 1232 Q335 1214 322 1196 L317 1198 L348 1372 Q376 1403 419 1425.5 Q462 1448 518 1448 Q558 1448 597 1433 Q636 1418 682 1395 Q722 1375 754 1363.5 Q786 1352 821 1352 Q849 1352 873 1360.5 Q897 1369 917 1383.5 Q937 1398 954 1416 Q971 1434 985 1452 L989 1450 L958 1276 Z " />
<glyph glyph-name="dieresis" unicode="&#xa8;" horiz-adv-x="1016" d="M846 1208 Q823 1208 803 1216.5 Q783 1225 768.5 1239 Q754 1253 745.5 1272.5 Q737 1292 737 1315 Q737 1340 747 1362 Q757 1384 773.5 1400 Q790 1416 812.5 1425 Q835 1434 860 1434 Q883 1434 903 1425.5 Q923 1417 937.5 1402.5 Q952 1388 960.5 1368.5 Q969 1349 969 1327 Q969 1302 959 1280 Q949 1258 932.5 1242 Q916 1226 893.5 1217 Q871 1208 846 1208 Z M449 1208 Q426 1208 406 1216.5 Q386 1225 371.5 1239 Q357 1253 348.5 1272.5 Q340 1292 340 1315 Q340 1340 349.5 1362 Q359 1384 376 1400 Q393 1416 415 1425 Q437 1434 463 1434 Q486 1434 505.5 1425.5 Q525 1417 539.5 1402.5 Q554 1388 562.5 1368.5 Q571 1349 571 1327 Q571 1302 561.5 1280 Q552 1258 535.5 1242 Q519 1226 496.5 1217 Q474 1208 449 1208 Z " />
<glyph glyph-name="macron" unicode="&#xaf;" horiz-adv-x="1016" d="M385 1391 L944 1391 L920 1251 L360 1251 L385 1391 Z " />
<glyph glyph-name="breve" unicode="&#x2d8;" horiz-adv-x="1016" d="M961 1475 Q949 1397 919 1340 Q889 1283 846.5 1245.5 Q804 1208 751.5 1189.5 Q699 1171 643 1171 Q588 1171 542 1188.5 Q496 1206 463 1238 Q430 1270 411.5 1315 Q393 1360 393 1415 Q393 1446 399 1475 L516 1475 Q514 1465 513 1454.5 Q512 1444 512 1432 Q512 1402 520.5 1375.5 Q529 1349 547 1329 Q565 1309 592 1297.5 Q619 1286 657 1286 Q697 1286 728 1299.5 Q759 1313 781.5 1337.5 Q804 1362 819.5 1397 Q835 1432 844 1475 L961 1475 Z " />
<glyph glyph-name="ring" unicode="&#x2da;" horiz-adv-x="1016" d="M647 1128 Q601 1128 560.5 1143 Q520 1158 489.5 1186 Q459 1214 441.5 1253.5 Q424 1293 424 1341 Q424 1390 443 1436 Q462 1482 495 1517.5 Q528 1553 574 1574 Q620 1595 674 1595 Q720 1595 760.5 1580 Q801 1565 831.5 1537 Q862 1509 879.5 1469 Q897 1429 897 1380 Q897 1331 878 1285.5 Q859 1240 826 1205 Q793 1170 747 1149 Q701 1128 647 1128 Z M651 1231 Q678 1231 703 1241.5 Q728 1252 746.5 1271 Q765 1290 776.5 1316 Q788 1342 788 1374 Q788 1396 781 1417.5 Q774 1439 759.5 1456 Q745 1473 723 1483 Q701 1493 670 1493 Q643 1493 618 1482 Q593 1471 574 1452 Q555 1433 543.5 1406 Q532 1379 532 1348 Q532 1326 539 1305 Q546 1284 560.5 1267.5 Q575 1251 597.5 1241 Q620 1231 651 1231 Z " />
<glyph glyph-name="hungarumlaut" unicode="&#x2dd;" horiz-adv-x="1016" d="M870 1489 L1034 1489 L764 1153 L641 1153 L870 1489 Z M588 1489 L752 1489 L481 1153 L358 1153 L588 1489 Z " />
<glyph glyph-name="dotaccent" unicode="&#x2d9;" horiz-adv-x="1016" d="M647 1208 Q624 1208 604.5 1216.5 Q585 1225 570.5 1239 Q556 1253 547.5 1272.5 Q539 1292 539 1315 Q539 1340 548.5 1362 Q558 1384 575 1400 Q592 1416 614 1425 Q636 1434 662 1434 Q685 1434 704.5 1425.5 Q724 1417 738.5 1402.5 Q753 1388 761.5 1368.5 Q770 1349 770 1327 Q770 1302 760.5 1280 Q751 1258 734 1242 Q717 1226 694.5 1217 Q672 1208 647 1208 Z " />
<glyph glyph-name="cedilla" unicode="&#xb8;" horiz-adv-x="1018" d="M406 68 L492 37 L428 -92 Q459 -102 486 -117 Q513 -132 533 -152.5 Q553 -173 564 -200.5 Q575 -228 575 -262 Q575 -304 559 -339 Q543 -374 514.5 -399.5 Q486 -425 446.5 -439 Q407 -453 360 -453 Q314 -453 266.5 -438.5 Q219 -424 176 -395 L225 -297 Q251 -316 284.5 -332 Q318 -348 360 -348 Q378 -348 395 -344 Q412 -340 425.5 -331 Q439 -322 447 -308 Q455 -294 455 -274 Q455 -248 438 -229.5 Q421 -211 395.5 -198 Q370 -185 341.5 -177.5 Q313 -170 289 -166 L406 68 Z " />
<glyph glyph-name="ogonek" unicode="&#x2db;" horiz-adv-x="1018" d="M551 -467 Q537 -469 519 -471 Q501 -473 479 -473 Q434 -473 392 -462 Q350 -451 317.5 -428 Q285 -405 265.5 -369.5 Q246 -334 246 -285 Q246 -233 266.5 -184 Q287 -135 322.5 -92 Q358 -49 404.5 -12.5 Q451 24 502 53 L635 16 Q596 -5 555 -35 Q514 -65 480.5 -101 Q447 -137 425 -177.5 Q403 -218 403 -260 Q403 -300 430.5 -324 Q458 -348 512 -348 Q526 -348 542.5 -346.5 Q559 -345 573 -342 L551 -467 Z " />
<glyph glyph-name="comma" unicode="&#x2c;" horiz-adv-x="598" d="M190 279 L383 279 L111 -301 L-25 -301 L190 279 Z " />
<glyph glyph-name="semicolon" unicode="&#x3b;" horiz-adv-x="598" d="M240 897 Q240 925 250.5 949 Q261 973 279.5 991 Q298 1009 322.5 1019.5 Q347 1030 375 1030 Q402 1030 424 1020.5 Q446 1011 462 994.5 Q478 978 487 956 Q496 934 496 909 Q496 882 485 857.5 Q474 833 455.5 815 Q437 797 412.5 786.5 Q388 776 360 776 Q333 776 311 785.5 Q289 795 273.5 811.5 Q258 828 249 850 Q240 872 240 897 Z M190 279 L383 279 L111 -301 L-25 -301 L190 279 Z " />
<glyph glyph-name="colon" unicode="&#x3a;" horiz-adv-x="598" d="M240 897 Q240 925 250.5 949 Q261 973 279.5 991 Q298 1009 322.5 1019.5 Q347 1030 375 1030 Q402 1030 424 1020.5 Q446 1011 462 994.5 Q478 978 487 956 Q496 934 496 909 Q496 882 485 857.5 Q474 833 455.5 815 Q437 797 412.5 786.5 Q388 776 360 776 Q333 776 311 785.5 Q289 795 273.5 811.5 Q258 828 249 850 Q240 872 240 897 Z M98 98 Q98 126 109 150 Q120 174 138.5 192 Q157 210 181.5 220.5 Q206 231 233 231 Q260 231 282.5 221.5 Q305 212 320.5 195.5 Q336 179 345 157 Q354 135 354 111 Q354 83 343.5 58.5 Q333 34 314.5 16 Q296 -2 271.5 -12.5 Q247 -23 219 -23 Q192 -23 169.5 -13 Q147 -3 131.5 13.5 Q116 30 107 52 Q98 74 98 98 Z " />
<glyph glyph-name="period" unicode="&#x2e;" horiz-adv-x="598" d="M98 98 Q98 126 109 150 Q120 174 138.5 192 Q157 210 181.5 220.5 Q206 231 233 231 Q260 231 282.5 221.5 Q305 212 320.5 195.5 Q336 179 345 157 Q354 135 354 111 Q354 83 343.5 58.5 Q333 34 314.5 16 Q296 -2 271.5 -12.5 Q247 -23 219 -23 Q192 -23 169.5 -13 Q147 -3 131.5 13.5 Q116 30 107 52 Q98 74 98 98 Z " />
<glyph glyph-name="ellipsis" unicode="&#x2026;" horiz-adv-x="1659" d="M98 98 Q98 126 109 150 Q120 174 138.5 192 Q157 210 181.5 220.5 Q206 231 233 231 Q260 231 282.5 221.5 Q305 212 320.5 195.5 Q336 179 345 157 Q354 135 354 111 Q354 83 343.5 58.5 Q333 34 314.5 16 Q296 -2 271.5 -12.5 Q247 -23 219 -23 Q192 -23 169.5 -13 Q147 -3 131.5 13.5 Q116 30 107 52 Q98 74 98 98 Z M628 98 Q628 126 639 150 Q650 174 668.5 192 Q687 210 711.5 220.5 Q736 231 763 231 Q790 231 812.5 221.5 Q835 212 850.5 195.5 Q866 179 875 157 Q884 135 884 111 Q884 83 873.5 58.5 Q863 34 844.5 16 Q826 -2 801.5 -12.5 Q777 -23 749 -23 Q722 -23 699.5 -13 Q677 -3 661.5 13.5 Q646 30 637 52 Q628 74 628 98 Z M1159 98 Q1159 126 1170 150 Q1181 174 1199.5 192 Q1218 210 1242.5 220.5 Q1267 231 1294 231 Q1321 231 1343.5 221.5 Q1366 212 1381.5 195.5 Q1397 179 1406 157 Q1415 135 1415 111 Q1415 83 1404.5 58.5 Q1394 34 1375.5 16 Q1357 -2 1332.5 -12.5 Q1308 -23 1280 -23 Q1253 -23 1230.5 -13 Q1208 -3 1192.5 13.5 Q1177 30 1168 52 Q1159 74 1159 98 Z " />
<glyph glyph-name="hyphen" unicode="&#x2d;" horiz-adv-x="709" d="M141 649 L618 649 L590 485 L113 485 L141 649 Z " />
<glyph glyph-name="exclam" unicode="&#x21;" horiz-adv-x="621" d="M387 1483 L580 1483 L385 455 L221 455 L387 1483 Z M115 98 Q115 126 125.5 150 Q136 174 154.5 192 Q173 210 197.5 220.5 Q222 231 250 231 Q277 231 299.5 221.5 Q322 212 337.5 195.5 Q353 179 362 157 Q371 135 371 111 Q371 83 360 58.5 Q349 34 330.5 16 Q312 -2 287.5 -12.5 Q263 -23 236 -23 Q209 -23 186.5 -13 Q164 -3 148.5 13.5 Q133 30 124 52 Q115 74 115 98 Z " />
<glyph glyph-name="exclamdown" unicode="&#xa1;" horiz-adv-x="621" d="M238 -475 L45 -475 L240 553 L403 553 L238 -475 Z M510 909 Q510 882 499.5 857.5 Q489 833 470.5 815 Q452 797 427.5 786.5 Q403 776 375 776 Q348 776 325.5 785.5 Q303 795 287.5 811.5 Q272 828 263 850 Q254 872 254 897 Q254 925 264.5 949 Q275 973 293.5 991 Q312 1009 336.5 1019.5 Q361 1030 389 1030 Q416 1030 438.5 1020.5 Q461 1011 476.5 994.5 Q492 978 501 956 Q510 934 510 909 Z " />
<glyph glyph-name="question" unicode="&#x3f;" horiz-adv-x="948" d="M287 770 Q313 767 346.5 765.5 Q380 764 412 764 Q509 764 580 786 Q651 808 700 856 Q742 896 767.5 952.5 Q793 1009 793 1077 Q793 1133 774 1179 Q755 1225 720 1258 Q685 1291 633.5 1309 Q582 1327 518 1327 Q466 1327 410 1315 Q354 1303 303 1280 L338 1475 Q381 1487 433.5 1495 Q486 1503 537 1503 Q627 1503 708.5 1476 Q790 1449 852 1397 Q914 1345 950.5 1269 Q987 1193 987 1096 Q987 997 949 901.5 Q911 806 829 735 Q758 672 661 639 Q564 606 442 606 L387 391 L219 391 L287 770 Z M127 98 Q127 126 137.5 150 Q148 174 166.5 192 Q185 210 209.5 220.5 Q234 231 262 231 Q289 231 311.5 221.5 Q334 212 349.5 195.5 Q365 179 374 157 Q383 135 383 111 Q383 83 372.5 58.5 Q362 34 343.5 16 Q325 -2 300.5 -12.5 Q276 -23 248 -23 Q221 -23 198.5 -13 Q176 -3 160.5 13.5 Q145 30 136 52 Q127 74 127 98 Z " />
<glyph glyph-name="questiondown" unicode="&#xbf;" horiz-adv-x="948" d="M662 238 Q636 241 602.5 242.5 Q569 244 537 244 Q440 244 368.5 222 Q297 200 248 152 Q206 111 181 54.5 Q156 -2 156 -70 Q156 -126 174.5 -172 Q193 -218 228.5 -250.5 Q264 -283 314.5 -301 Q365 -319 430 -319 Q483 -319 538.5 -307 Q594 -295 645 -272 L610 -467 Q567 -479 515 -487.5 Q463 -496 412 -496 Q322 -496 240.5 -469 Q159 -442 96.5 -389.5 Q34 -337 -2.5 -261.5 Q-39 -186 -39 -88 Q-39 11 -1 106 Q37 201 119 272 Q190 335 287 368 Q384 401 506 401 L561 616 L729 616 L662 238 Z M821 909 Q821 882 810.5 857.5 Q800 833 781.5 815 Q763 797 738.5 786.5 Q714 776 686 776 Q659 776 636.5 785.5 Q614 795 598.5 811.5 Q583 828 574 850 Q565 872 565 897 Q565 925 576 949 Q587 973 605.5 991 Q624 1009 648.5 1019.5 Q673 1030 700 1030 Q727 1030 749.5 1020.5 Q772 1011 787.5 994.5 Q803 978 812 956 Q821 934 821 909 Z " />
<glyph glyph-name="quoteleft" unicode="&#x2018;" horiz-adv-x="547" d="M459 1520 L584 1520 L375 969 L193 969 L459 1520 Z " />
<glyph glyph-name="quoteright" unicode="&#x2019;" horiz-adv-x="547" d="M430 1520 L612 1520 L346 969 L221 969 L430 1520 Z " />
<glyph glyph-name="quotedblleft" unicode="&#x201c;" horiz-adv-x="877" d="M459 1520 L584 1520 L375 969 L193 969 L459 1520 Z M789 1520 L914 1520 L705 969 L523 969 L789 1520 Z " />
<glyph glyph-name="quotedblright" unicode="&#x201d;" horiz-adv-x="877" d="M430 1520 L612 1520 L346 969 L221 969 L430 1520 Z M760 1520 L942 1520 L676 969 L551 969 L760 1520 Z " />
<glyph glyph-name="quotesinglbase" unicode="&#x201a;" horiz-adv-x="547" d="M210 337 L392 337 L126 -214 L1 -214 L210 337 Z " />
<glyph glyph-name="quotedblbase" unicode="&#x201e;" horiz-adv-x="877" d="M210 337 L392 337 L126 -214 L1 -214 L210 337 Z M539 337 L721 337 L455 -214 L330 -214 L539 337 Z " />
<glyph glyph-name="guilsinglleft" unicode="&#x2039;" horiz-adv-x="698" d="M82 530 L485 952 L676 952 L260 516 L518 55 L346 55 L82 530 Z " />
<glyph glyph-name="guilsinglright" unicode="&#x203a;" horiz-adv-x="698" d="M438 492 L180 952 L352 952 L616 477 L213 55 L23 55 L438 492 Z " />
<glyph glyph-name="guillemotleft" unicode="&#xab;" horiz-adv-x="1112" d="M82 530 L485 952 L676 952 L260 516 L518 55 L346 55 L82 530 Z M496 530 L899 952 L1090 952 L674 516 L932 55 L760 55 L496 530 Z " />
<glyph glyph-name="guillemotright" unicode="&#xbb;" horiz-adv-x="1112" d="M438 492 L180 952 L352 952 L616 477 L213 55 L23 55 L438 492 Z M852 492 L594 952 L766 952 L1030 477 L627 55 L437 55 L852 492 Z " />
<glyph glyph-name="slash" unicode="&#x2f;" horiz-adv-x="909" d="M-82 -78 L915 1561 L1075 1561 L78 -78 L-82 -78 Z " />
<glyph glyph-name="bar" unicode="&#x7c;" horiz-adv-x="649" d="M449 1638 L600 1638 L231 -451 L80 -451 L449 1638 Z " />
<glyph glyph-name="underscore" unicode="&#x5f;" horiz-adv-x="950" d="M829 -184 L811 -291 L-139 -291 L-121 -184 L829 -184 Z " />
<glyph glyph-name="endash" unicode="&#x2013;" horiz-adv-x="1001" d="M131 641 L918 641 L891 494 L104 494 L131 641 Z " />
<glyph glyph-name="emdash" unicode="&#x2014;" horiz-adv-x="1587" d="M98 631 L1532 631 L1509 504 L76 504 L98 631 Z " />
<glyph glyph-name="bullet" unicode="&#x2022;" horiz-adv-x="778" d="M408 385 Q362 385 321 402.5 Q280 420 249.5 450.5 Q219 481 201.5 521.5 Q184 562 184 608 Q184 654 201.5 694.5 Q219 735 249.5 765.5 Q280 796 321 813.5 Q362 831 408 831 Q454 831 494.5 813.5 Q535 796 565.5 765.5 Q596 735 613.5 694.5 Q631 654 631 608 Q631 562 613.5 521.5 Q596 481 565.5 450.5 Q535 420 494.5 402.5 Q454 385 408 385 Z " />
<glyph glyph-name="periodcentered" unicode="&#xb7;" horiz-adv-x="598" d="M188 604 Q188 632 199 656 Q210 680 228.5 698 Q247 716 271.5 726.5 Q296 737 323 737 Q350 737 372.5 727.5 Q395 718 410.5 701.5 Q426 685 435 663 Q444 641 444 617 Q444 589 433.5 564.5 Q423 540 404.5 522 Q386 504 361.5 493.5 Q337 483 309 483 Q282 483 259.5 493 Q237 503 221.5 519.5 Q206 536 197 558 Q188 580 188 604 Z " />
<glyph glyph-name="parenleft" unicode="&#x28;" horiz-adv-x="686" d="M303 -436 Q222 -287 186 -116 Q150 55 150 238 Q150 418 184.5 608 Q219 798 293 985 Q362 1160 449.5 1291.5 Q537 1423 631 1522 L827 1522 Q710 1407 614.5 1259 Q519 1111 453 944 Q388 780 353.5 605 Q319 430 319 248 Q319 61 356.5 -113 Q394 -287 471 -436 L303 -436 Z " />
<glyph glyph-name="parenright" unicode="&#x29;" horiz-adv-x="686" d="M-127 -436 Q-9 -322 86.5 -174 Q182 -26 248 141 Q313 305 348 480.5 Q383 656 383 842 Q383 1025 345.5 1198.5 Q308 1372 229 1522 L399 1522 Q481 1372 517 1202 Q553 1032 553 852 Q553 668 518.5 477.5 Q484 287 410 100 Q344 -67 257.5 -200 Q171 -333 72 -436 L-127 -436 Z " />
<glyph glyph-name="bracketleft" unicode="&#x5b;" horiz-adv-x="672" d="M467 -289 L440 -436 L0 -436 L346 1522 L786 1522 L760 1374 L489 1374 L197 -289 L467 -289 Z " />
<glyph glyph-name="bracketright" unicode="&#x5d;" horiz-adv-x="672" d="M197 -289 L489 1374 L219 1374 L246 1522 L686 1522 L340 -436 L-100 -436 L-74 -289 L197 -289 Z " />
<glyph glyph-name="braceleft" unicode="&#x7b;" horiz-adv-x="731" d="M240 293 Q245 316 246.5 335.5 Q248 355 248 369 Q248 394 242 413 Q236 432 220.5 444.5 Q205 457 179.5 463 Q154 469 115 469 L57 469 L84 616 L154 616 Q201 616 230.5 626 Q260 636 279 657 Q298 678 308 709 Q318 740 326 782 L406 1233 Q431 1382 509 1463 Q587 1544 731 1544 Q769 1544 805.5 1538.5 Q842 1533 874 1524 L850 1382 Q828 1389 799.5 1393 Q771 1397 743 1397 Q706 1397 678 1387.5 Q650 1378 629.5 1356 Q609 1334 594.5 1297.5 Q580 1261 571 1206 L498 786 Q489 739 477 699.5 Q465 660 446 629.5 Q427 599 398.5 577 Q370 555 330 545 L330 541 Q379 521 399.5 482 Q420 443 420 389 Q420 361 416.5 336.5 Q413 312 408 281 L340 -106 Q335 -131 332.5 -153.5 Q330 -176 330 -195 Q330 -229 339.5 -251 Q349 -273 366 -286.5 Q383 -300 408 -305.5 Q433 -311 465 -311 Q482 -311 507.5 -309.5 Q533 -308 553 -305 L526 -453 Q509 -456 486 -457.5 Q463 -459 440 -459 Q374 -459 321.5 -445 Q269 -431 233 -401.5 Q197 -372 177.5 -326.5 Q158 -281 158 -219 Q158 -194 160.5 -168.5 Q163 -143 168 -115 L240 293 Z " />
<glyph glyph-name="braceright" unicode="&#x7d;" horiz-adv-x="731" d="M248 299 Q256 346 268 385.5 Q280 425 299.5 456 Q319 487 347 508.5 Q375 530 416 541 L416 545 Q366 565 346 603.5 Q326 642 326 696 Q326 724 329.5 749 Q333 774 338 805 L406 1192 Q411 1217 413.5 1239 Q416 1261 416 1280 Q416 1347 380 1372 Q344 1397 281 1397 Q264 1397 238.5 1395.5 Q213 1394 193 1391 L219 1538 Q236 1541 259 1542.5 Q282 1544 305 1544 Q437 1544 512.5 1486.5 Q588 1429 588 1305 Q588 1280 585.5 1254 Q583 1228 578 1200 L506 793 Q501 770 499.5 750.5 Q498 731 498 717 Q498 691 504 672.5 Q510 654 525 641 Q540 628 566 622 Q592 616 631 616 L688 616 L662 469 L592 469 Q545 469 515 459 Q485 449 466.5 428.5 Q448 408 437.5 376.5 Q427 345 420 303 L340 -147 Q327 -222 301.5 -280 Q276 -338 236 -377.5 Q196 -417 141 -438 Q86 -459 14 -459 Q-24 -459 -60.5 -453.5 Q-97 -448 -129 -438 L-104 -297 Q-83 -303 -54.5 -307 Q-26 -311 2 -311 Q39 -311 67 -301.5 Q95 -292 116 -270 Q137 -248 151 -211.5 Q165 -175 174 -121 L248 299 Z " />
<glyph glyph-name="asterisk" unicode="&#x2a;" horiz-adv-x="928" d="M496 995 L209 829 L160 948 L459 1090 L211 1231 L301 1350 L530 1184 L569 1491 L709 1491 L641 1184 L928 1350 L977 1231 L680 1090 L926 948 L836 829 L606 995 L567 688 L428 688 L496 995 Z " />
<glyph glyph-name="dagger" unicode="&#x2020;" horiz-adv-x="1229" d="M590 840 L190 840 L219 1004 L618 1004 L702 1483 L872 1483 L788 1004 L1188 1004 L1159 840 L760 840 L532 -451 L362 -451 L590 840 Z " />
<glyph glyph-name="daggerdbl" unicode="&#x2021;" horiz-adv-x="1229" d="M76 193 L475 193 L590 840 L190 840 L219 1004 L618 1004 L702 1483 L872 1483 L788 1004 L1188 1004 L1159 840 L760 840 L645 193 L1044 193 L1016 29 L618 29 L535 -451 L365 -451 L449 29 L47 29 L76 193 Z " />
<glyph glyph-name="section" unicode="&#xa7;" horiz-adv-x="1143" d="M137 -39 Q203 -92 285 -123 Q367 -154 449 -154 Q496 -154 538.5 -142.5 Q581 -131 613.5 -108 Q646 -85 665 -50.5 Q684 -16 684 29 Q684 70 667.5 101 Q651 132 618 160 Q585 188 534.5 216.5 Q484 245 416 281 Q357 312 305 344 Q253 376 214.5 414.5 Q176 453 153.5 502 Q131 551 131 618 Q131 678 149.5 728.5 Q168 779 201.5 820 Q235 861 282.5 891.5 Q330 922 389 942 L389 946 Q354 983 330.5 1032 Q307 1081 307 1147 Q307 1223 338 1287.5 Q369 1352 424 1398.5 Q479 1445 554 1471 Q629 1497 717 1497 Q795 1497 876 1475.5 Q957 1454 1028 1417 L997 1239 Q935 1279 861.5 1305 Q788 1331 717 1331 Q672 1331 631.5 1320 Q591 1309 560 1287.5 Q529 1266 510.5 1233.5 Q492 1201 492 1159 Q492 1119 509 1089 Q526 1059 559 1031.5 Q592 1004 641.5 976.5 Q691 949 756 915 Q817 883 870 850.5 Q923 818 963 778 Q1003 738 1026 687 Q1049 636 1049 567 Q1049 507 1031 454 Q1013 401 980 359 Q947 317 901 286 Q855 255 799 238 L799 233 Q833 193 850.5 148 Q868 103 868 43 Q868 -40 836 -107 Q804 -174 747.5 -221 Q691 -268 614.5 -293.5 Q538 -319 449 -319 Q358 -319 268.5 -294 Q179 -269 104 -225 L137 -39 Z M696 754 Q669 769 649.5 779 Q630 789 614 797 Q598 805 583 812.5 Q568 820 549 831 Q507 826 464 814 Q421 802 386.5 779.5 Q352 757 330.5 722 Q309 687 309 637 Q309 603 320.5 575.5 Q332 548 356.5 523.5 Q381 499 418.5 475 Q456 451 508 424 Q537 408 575.5 388.5 Q614 369 657 344 Q699 351 737 367 Q775 383 804 408.5 Q833 434 850.5 468.5 Q868 503 868 547 Q868 583 856 611.5 Q844 640 822 664 Q800 688 768 709.5 Q736 731 696 754 Z " />
<glyph glyph-name="paragraph" unicode="&#xb6;" horiz-adv-x="1155" d="M520 741 Q452 745 396 771.5 Q340 798 300 841 Q260 884 237.5 941.5 Q215 999 215 1065 Q215 1143 248.5 1218.5 Q282 1294 339 1352.5 Q396 1411 471.5 1447 Q547 1483 631 1483 L1118 1483 L778 -451 L627 -451 L942 1343 L778 1343 L463 -451 L311 -451 L520 741 Z " />
<glyph glyph-name="asciicircum" unicode="&#x5e;" horiz-adv-x="1161" d="M756 1505 L760 1505 L1059 741 L907 741 L719 1239 L715 1239 L340 741 L184 741 L756 1505 Z " />
<glyph glyph-name="asciitilde" unicode="&#x7e;" horiz-adv-x="1106" d="M195 811 Q284 891 401 891 Q463 891 517.5 870 Q572 849 629 817 Q656 802 678.5 789.5 Q701 777 723 768 Q745 759 767 754.5 Q789 750 813 750 Q849 750 879.5 761 Q910 772 936.5 790 Q963 808 985 831.5 Q1007 855 1026 881 L1030 879 L993 672 Q948 631 896.5 611.5 Q845 592 786 592 Q725 592 670.5 613 Q616 634 559 666 Q532 681 509 693.5 Q486 706 464.5 715 Q443 724 421 728.5 Q399 733 375 733 Q339 733 308.5 722 Q278 711 251.5 693 Q225 675 203 651 Q181 627 162 602 L158 604 L195 811 Z " />
<glyph glyph-name="brokenbar" unicode="&#xa6;" horiz-adv-x="649" d="M449 1638 L600 1638 L459 836 L307 836 L449 1638 Z M373 352 L231 -451 L80 -451 L221 352 L373 352 Z " />
<glyph glyph-name="backslash" unicode="&#x5c;" horiz-adv-x="909" d="M236 1561 L381 1561 L758 -78 L612 -78 L236 1561 Z " />
<glyph glyph-name="quotesingle" unicode="&#x27;" horiz-adv-x="385" d="M285 1520 L457 1520 L330 969 L217 969 L285 1520 Z " />
<glyph glyph-name="quotedbl" unicode="&#x22;" horiz-adv-x="715" d="M285 1520 L457 1520 L330 969 L217 969 L285 1520 Z M615 1520 L787 1520 L660 969 L547 969 L615 1520 Z " />
<glyph glyph-name="at" unicode="&#x40;" horiz-adv-x="1645" d="M1042 737 Q1011 751 965.5 763.5 Q920 776 866 776 Q803 776 752 748.5 Q701 721 664 678 Q620 627 597.5 564 Q575 501 575 438 Q575 392 587.5 354 Q600 316 623.5 288.5 Q647 261 681.5 246 Q716 231 760 231 Q819 231 876.5 259 Q934 287 979 340 Q979 355 980 371.5 Q981 388 982.5 403 Q984 418 985.5 430 Q987 442 989 449 L1042 737 Z M1122 432 Q1117 406 1115.5 385 Q1114 364 1114 348 Q1114 285 1151 258 Q1188 231 1251 231 Q1306 231 1344.5 263 Q1383 295 1407.5 344.5 Q1432 394 1443 453.5 Q1454 513 1454 569 Q1454 686 1414.5 790 Q1375 894 1302 972 Q1229 1050 1124 1095.5 Q1019 1141 889 1141 Q792 1141 704 1115.5 Q616 1090 540 1044 Q464 998 402.5 933.5 Q341 869 297.5 791.5 Q254 714 230.5 625.5 Q207 537 207 442 Q207 319 246.5 214 Q286 109 360 32 Q434 -45 539.5 -89 Q645 -133 776 -133 Q913 -133 1030.5 -90 Q1148 -47 1247 25 L1221 -127 Q1125 -192 1010 -226 Q895 -260 774 -260 Q623 -260 494.5 -210 Q366 -160 272 -69.5 Q178 21 125 147.5 Q72 274 72 428 Q72 537 99.5 641.5 Q127 746 178 839.5 Q229 933 301.5 1011.5 Q374 1090 465 1147 Q556 1204 663 1236 Q770 1268 889 1268 Q1039 1268 1167.5 1217.5 Q1296 1167 1389.5 1077 Q1483 987 1536 862 Q1589 737 1589 588 Q1589 497 1568 411 Q1547 325 1502.5 258.5 Q1458 192 1389.5 151.5 Q1321 111 1227 111 Q1149 111 1091 142 Q1033 173 1004 231 Q945 170 874 139.5 Q803 109 729 109 Q663 109 608.5 132.5 Q554 156 515.5 199 Q477 242 455.5 301.5 Q434 361 434 432 Q434 525 469 612.5 Q504 700 569 768 Q628 830 705.5 864.5 Q783 899 877 899 Q963 899 1039 876 Q1115 853 1190 807 L1122 432 Z " />
<glyph glyph-name="copyright" unicode="&#xa9;" horiz-adv-x="1683" d="M117 741 Q117 849 143.5 948 Q170 1047 218.5 1131.5 Q267 1216 336 1285 Q405 1354 490.5 1403 Q576 1452 675.5 1478.5 Q775 1505 885 1505 Q994 1505 1093.5 1478.5 Q1193 1452 1278.5 1403 Q1364 1354 1433 1285 Q1502 1216 1551 1131.5 Q1600 1047 1626.5 948 Q1653 849 1653 741 Q1653 633 1626.5 534.5 Q1600 436 1551 351 Q1502 266 1433 197 Q1364 128 1278.5 79 Q1193 30 1093.5 3.5 Q994 -23 885 -23 Q720 -23 579.5 35.5 Q439 94 336.5 197 Q234 300 175.5 439.5 Q117 579 117 741 Z M250 741 Q250 606 296 489.5 Q342 373 425.5 286.5 Q509 200 626 151 Q743 102 885 102 Q1027 102 1144 151 Q1261 200 1344.5 286.5 Q1428 373 1474 489.5 Q1520 606 1520 741 Q1520 876 1474 993 Q1428 1110 1344.5 1196 Q1261 1282 1144 1331 Q1027 1380 885 1380 Q743 1380 626 1331 Q509 1282 425.5 1196 Q342 1110 296 993 Q250 876 250 741 Z M1163 397 Q1112 365 1046.5 349.5 Q981 334 920 334 Q825 334 746 365 Q667 396 609 451.5 Q551 507 519 583 Q487 659 487 748 Q487 838 519.5 915.5 Q552 993 610 1049 Q668 1105 747.5 1137 Q827 1169 922 1169 Q987 1169 1045 1153.5 Q1103 1138 1151 1112 L1151 967 Q1103 1001 1044.5 1021.5 Q986 1042 924 1042 Q859 1042 804.5 1019.5 Q750 997 711 957.5 Q672 918 650.5 864.5 Q629 811 629 750 Q629 688 650.5 635.5 Q672 583 711.5 545 Q751 507 806 485 Q861 463 928 463 Q994 463 1054.5 485 Q1115 507 1163 545 L1163 397 Z " />
<glyph glyph-name="registered" unicode="&#xae;" horiz-adv-x="946" d="M584 743 Q501 743 430.5 771.5 Q360 800 309 851 Q258 902 229.5 972 Q201 1042 201 1124 Q201 1206 229.5 1276 Q258 1346 309 1397 Q360 1448 430.5 1476.5 Q501 1505 584 1505 Q667 1505 737 1476.5 Q807 1448 858 1397 Q909 1346 938 1276 Q967 1206 967 1124 Q967 1042 938 972 Q909 902 858 851 Q807 800 737 771.5 Q667 743 584 743 Z M584 803 Q654 803 713 827.5 Q772 852 815 894.5 Q858 937 881.5 996 Q905 1055 905 1124 Q905 1193 881.5 1252 Q858 1311 815 1354 Q772 1397 713 1421.5 Q654 1446 584 1446 Q513 1446 454 1421.5 Q395 1397 352 1354 Q309 1311 285.5 1252 Q262 1193 262 1124 Q262 1055 285.5 996 Q309 937 352 894.5 Q395 852 454 827.5 Q513 803 584 803 Z M586 1067 L518 1067 L518 918 L444 918 L444 1331 L592 1331 Q623 1331 651.5 1322.5 Q680 1314 701.5 1297 Q723 1280 735.5 1255 Q748 1230 748 1198 Q748 1152 722 1121.5 Q696 1091 657 1077 L758 918 L674 918 L586 1067 Z M586 1130 Q624 1130 648 1147 Q672 1164 672 1198 Q672 1230 648 1247 Q624 1264 586 1264 L518 1264 L518 1130 L586 1130 Z " />
<glyph glyph-name="trademark" unicode="&#x2122;" horiz-adv-x="1374" d="M346 1370 L154 1370 L154 1483 L666 1483 L666 1370 L473 1370 L473 889 L346 889 L346 1370 Z M741 889 L741 1501 L745 1503 L1063 1169 L1378 1503 L1382 1501 L1382 889 L1257 889 L1257 1100 Q1257 1125 1257.5 1153.5 Q1258 1182 1260 1206 L1255 1208 Q1237 1187 1217.5 1165.5 Q1198 1144 1174 1118 L1061 999 L944 1122 Q919 1148 901 1168.5 Q883 1189 864 1210 L860 1208 Q862 1184 862 1155.5 Q862 1127 862 1102 L862 889 L741 889 Z " />
<glyph glyph-name="numbersign" unicode="&#x23;" horiz-adv-x="1249" d="M270 457 L20 457 L78 582 L328 582 L475 901 L225 901 L283 1026 L532 1026 L743 1483 L877 1483 L666 1026 L930 1026 L1141 1483 L1274 1483 L1063 1026 L1313 1026 L1255 901 L1006 901 L858 582 L1108 582 L1051 457 L801 457 L590 0 L457 0 L668 457 L403 457 L193 0 L59 0 L270 457 Z M725 582 L872 901 L608 901 L461 582 L725 582 Z " />
<glyph glyph-name="zero" unicode="0" horiz-adv-x="1171" d="M547 158 Q641 158 706.5 214.5 Q772 271 815 365 Q843 425 866.5 508 Q890 591 907 679.5 Q924 768 934 853 Q944 938 944 1004 Q944 1165 882.5 1245 Q821 1325 707 1325 Q613 1325 547.5 1268.5 Q482 1212 438 1118 Q411 1057 387 974 Q363 891 346 803 Q329 715 319 629.5 Q309 544 309 479 Q309 318 370.5 238 Q432 158 547 158 Z M535 -23 Q453 -23 377.5 3 Q302 29 243.5 86.5 Q185 144 150 237 Q115 330 115 465 Q115 512 119.5 569.5 Q124 627 133 690.5 Q142 754 155.5 820.5 Q169 887 186 951.5 Q203 1016 223.5 1076.5 Q244 1137 268 1188 Q299 1255 343.5 1313 Q388 1371 444.5 1414 Q501 1457 569.5 1481 Q638 1505 719 1505 Q800 1505 876 1479 Q952 1453 1010.5 1395.5 Q1069 1338 1104 1245 Q1139 1152 1139 1018 Q1139 947 1128.5 854 Q1118 761 1098 662.5 Q1078 564 1049.5 468 Q1021 372 985 295 Q953 227 909 169 Q865 111 809 68.5 Q753 26 684.5 1.5 Q616 -23 535 -23 Z " />
<glyph glyph-name="one" unicode="1" horiz-adv-x="1022" d="M856 1522 L588 0 L393 0 L606 1204 L231 1008 L266 1210 L852 1524 L856 1522 Z " />
</font>
</svg>
