<?xml version="1.0" encoding="UTF-8"?>
<svg xmlns="http://www.w3.org/2000/svg" xmlns:xlink="http://www.w3.org/1999/xlink" version="1.2" >
<font id="MontblancType-Regular">
<font-face  font-family="Montblanc Type" units-per-em="2048" ascent="1581" descent="-467" font-style="normal" font-weight="400" font-stretch="normal" cap-height="1483" x-height="1008" underline-position="-195" underline-thickness="102" />
<missing-glyph  horiz-adv-x="1176" d="M109 1389 L1061 1389 L1061 0 L109 0 L109 1389 Z M887 1282 L283 1282 L584 799 L887 1282 Z M946 1167 L649 694 L946 221 L946 1167 Z M887 106 L584 590 L283 106 L887 106 Z M520 694 L221 1167 L221 221 L520 694 Z " />
<glyph glyph-name=".null" horiz-adv-x="2" d="" />
<glyph glyph-name="nonmarkingreturn" unicode="&#xd;" horiz-adv-x="715" d="" />
<glyph glyph-name="space" unicode="&#x20;" horiz-adv-x="496" d="" />
<glyph glyph-name="A" unicode="A" horiz-adv-x="1440" d="M965 569 L864 788 Q817 893 781.5 971.5 Q746 1050 717 1116 L713 1116 Q698 1083 683 1048.5 Q668 1014 650 974.5 Q632 935 611 889 Q590 843 565 788 L465 569 L965 569 Z M1042 399 L387 399 L205 0 L0 0 L717 1534 L721 1534 L1440 0 L1225 0 L1042 399 Z " />
<glyph glyph-name="B" unicode="B" horiz-adv-x="1274" d="M545 176 Q606 176 654.5 179 Q703 182 741.5 189 Q780 196 810.5 207.5 Q841 219 866 236 Q905 262 935 309 Q965 356 965 430 Q965 489 941.5 533.5 Q918 578 874.5 608 Q831 638 769.5 653 Q708 668 631 668 L360 668 L360 176 L545 176 Z M360 1307 L360 834 L635 834 Q698 834 753 847.5 Q808 861 848.5 888.5 Q889 916 912.5 959.5 Q936 1003 936 1063 Q936 1134 906.5 1179.5 Q877 1225 834 1251 Q808 1267 778 1278 Q748 1289 711.5 1295.5 Q675 1302 630 1304.5 Q585 1307 528 1307 L360 1307 Z M891 758 Q951 743 1000.5 714.5 Q1050 686 1085 644 Q1120 602 1139.5 547 Q1159 492 1159 424 Q1159 319 1115 233.5 Q1071 148 989 92 Q950 66 904.5 48.5 Q859 31 804.5 20 Q750 9 685.5 4.5 Q621 0 543 0 L166 0 L166 1483 L545 1483 Q615 1483 674 1478.5 Q733 1474 783.5 1464.5 Q834 1455 876 1439 Q918 1423 956 1399 Q1041 1345 1085.5 1267.5 Q1130 1190 1130 1087 Q1130 1022 1111.5 969 Q1093 916 1061 875.5 Q1029 835 985.5 806.5 Q942 778 891 762 L891 758 Z " />
<glyph glyph-name="C" unicode="C" horiz-adv-x="1378" d="M1278 90 Q1190 34 1079.5 5.5 Q969 -23 854 -23 Q687 -23 545.5 35 Q404 93 301 195 Q198 297 140 436 Q82 575 82 737 Q82 896 137.5 1036 Q193 1176 294 1280 Q395 1384 536.5 1444.5 Q678 1505 850 1505 Q964 1505 1067.5 1478 Q1171 1451 1257 1403 L1257 1188 Q1176 1250 1071 1287.5 Q966 1325 848 1325 Q723 1325 618 1280 Q513 1235 437 1156 Q361 1077 318.5 970.5 Q276 864 276 741 Q276 618 318.5 511.5 Q361 405 438.5 326.5 Q516 248 623.5 203 Q731 158 862 158 Q983 158 1088 197 Q1193 236 1278 307 L1278 90 Z " />
<glyph glyph-name="D" unicode="D" horiz-adv-x="1505" d="M166 1483 L573 1483 Q722 1483 853.5 1456.5 Q985 1430 1098 1362 Q1178 1314 1240 1248 Q1302 1182 1344 1103.5 Q1386 1025 1408 935 Q1430 845 1430 748 Q1430 656 1410.5 569.5 Q1391 483 1353 406.5 Q1315 330 1260 265 Q1205 200 1135 150 Q1016 67 866 33.5 Q716 0 524 0 L166 0 L166 1483 Z M555 176 Q688 176 797 197 Q906 218 995 274 Q1048 308 1092.5 356 Q1137 404 1168.5 463.5 Q1200 523 1217.5 593 Q1235 663 1235 741 Q1235 822 1216.5 892 Q1198 962 1166 1020.5 Q1134 1079 1090.5 1125 Q1047 1171 997 1204 Q949 1236 895.5 1256 Q842 1276 785.5 1287.5 Q729 1299 670 1303 Q611 1307 551 1307 L360 1307 L360 176 L555 176 Z " />
<glyph glyph-name="E" unicode="E" horiz-adv-x="1128" d="M166 1483 L1022 1483 L1022 1307 L360 1307 L360 848 L940 848 L940 678 L360 678 L360 176 L1040 176 L1040 0 L166 0 L166 1483 Z " />
<glyph glyph-name="F" unicode="F" horiz-adv-x="1124" d="M166 1483 L1042 1483 L1042 1307 L360 1307 L360 819 L961 819 L961 649 L360 649 L360 0 L166 0 L166 1483 Z " />
<glyph glyph-name="G" unicode="G" horiz-adv-x="1491" d="M825 739 L1352 739 L1352 123 Q1304 89 1245 62 Q1186 35 1121.5 16 Q1057 -3 988.5 -13 Q920 -23 852 -23 Q742 -23 643 3 Q544 29 458.5 77 Q373 125 304 193 Q235 261 186 345.5 Q137 430 110.5 529 Q84 628 84 737 Q84 899 141 1039 Q198 1179 301 1282.5 Q404 1386 547 1445.5 Q690 1505 862 1505 Q931 1505 994 1495.5 Q1057 1486 1113 1470 Q1169 1454 1217.5 1432.5 Q1266 1411 1307 1386 L1307 1167 Q1219 1239 1103.5 1282 Q988 1325 860 1325 Q730 1325 623 1279.5 Q516 1234 439.5 1155 Q363 1076 321 969.5 Q279 863 279 741 Q279 621 320 514.5 Q361 408 437 328 Q513 248 621.5 201 Q730 154 866 154 Q948 154 1022.5 171 Q1097 188 1157 219 L1157 569 L825 569 L825 739 Z " />
<glyph glyph-name="H" unicode="H" horiz-adv-x="1528" d="M166 1483 L360 1483 L360 850 L1167 850 L1167 1483 L1362 1483 L1362 0 L1167 0 L1167 674 L360 674 L360 0 L166 0 L166 1483 Z " />
<glyph glyph-name="I" unicode="I" horiz-adv-x="526" d="M166 1483 L360 1483 L360 0 L166 0 L166 1483 Z " />
<glyph glyph-name="J" unicode="J" horiz-adv-x="815" d="M59 205 Q115 182 169.5 170 Q224 158 270 158 Q330 158 366.5 176.5 Q403 195 422.5 229.5 Q442 264 448.5 312.5 Q455 361 455 420 L455 1483 L649 1483 L649 430 Q649 364 644 313 Q639 262 629.5 223 Q620 184 605 154 Q590 124 571 100 Q517 34 440.5 5.5 Q364 -23 274 -23 Q206 -23 153.5 -9 Q101 5 59 20 L59 205 Z " />
<glyph glyph-name="K" unicode="K" horiz-adv-x="1284" d="M166 1483 L360 1483 L360 786 L365 784 L1012 1483 L1253 1483 L588 770 L1311 0 L1057 0 L365 741 L360 739 L360 0 L166 0 L166 1483 Z " />
<glyph glyph-name="L" unicode="L" horiz-adv-x="1120" d="M166 1483 L360 1483 L360 176 L1061 176 L1061 0 L166 0 L166 1483 Z " />
<glyph glyph-name="M" unicode="M" horiz-adv-x="1853" d="M166 1532 L170 1534 L926 662 L1683 1534 L1688 1532 L1688 0 L1493 0 L1493 696 Q1493 787 1493 870 Q1493 953 1495 1028 L1491 1030 Q1465 1000 1440 970 Q1415 940 1387 908 Q1359 876 1328.5 840.5 Q1298 805 1262 764 L924 375 L586 764 Q550 805 519 840.5 Q488 876 460 908 Q432 940 406.5 970 Q381 1000 356 1030 L352 1028 Q354 953 354 870 Q354 787 354 696 L354 0 L166 0 L166 1532 Z " />
<glyph glyph-name="N" unicode="N" horiz-adv-x="1581" d="M610 797 Q533 878 472.5 943.5 Q412 1009 356 1069 L352 1067 Q354 989 354 905.5 Q354 822 354 731 L354 0 L166 0 L166 1532 L172 1534 L971 686 Q1048 605 1108.5 539.5 Q1169 474 1225 414 L1229 416 Q1227 494 1227 577.5 Q1227 661 1227 752 L1227 1483 L1415 1483 L1415 -49 L1411 -51 L610 797 Z " />
<glyph glyph-name="O" unicode="O" horiz-adv-x="1671" d="M82 741 Q82 848 108 946.5 Q134 1045 182 1130 Q230 1215 298 1284 Q366 1353 449.5 1402.5 Q533 1452 631 1478.5 Q729 1505 836 1505 Q943 1505 1041 1478.5 Q1139 1452 1222.5 1402.5 Q1306 1353 1373.5 1284 Q1441 1215 1489 1130 Q1537 1045 1563 946.5 Q1589 848 1589 741 Q1589 633 1563 535 Q1537 437 1489.5 352 Q1442 267 1374 198 Q1306 129 1222.5 79.5 Q1139 30 1041 3.5 Q943 -23 836 -23 Q728 -23 630.5 3.5 Q533 30 449.5 79.5 Q366 129 298 198 Q230 267 182 352 Q134 437 108 535 Q82 633 82 741 Z M276 741 Q276 619 318 512.5 Q360 406 434.5 327.5 Q509 249 611.5 203.5 Q714 158 836 158 Q957 158 1059.5 203.5 Q1162 249 1236.5 327.5 Q1311 406 1353 512.5 Q1395 619 1395 741 Q1395 863 1353 969.5 Q1311 1076 1236.5 1155 Q1162 1234 1059.5 1279.5 Q957 1325 836 1325 Q714 1325 611.5 1279.5 Q509 1234 434.5 1155 Q360 1076 318 969.5 Q276 863 276 741 Z " />
<glyph glyph-name="P" unicode="P" horiz-adv-x="1253" d="M166 1483 L532 1483 Q591 1483 649 1481 Q707 1479 762.5 1471 Q818 1463 870.5 1447.5 Q923 1432 971 1405 Q1068 1349 1127 1257.5 Q1186 1166 1186 1034 Q1186 970 1171.5 914.5 Q1157 859 1130.5 812 Q1104 765 1067 727 Q1030 689 985 662 Q937 633 881 616 Q825 599 762.5 590.5 Q700 582 632.5 580 Q565 578 494 578 L360 578 L360 0 L166 0 L166 1483 Z M518 748 Q583 748 635 749.5 Q687 751 729.5 756.5 Q772 762 807 773 Q842 784 872 803 Q928 837 959.5 893 Q991 949 991 1026 Q991 1111 954 1169.5 Q917 1228 854 1260 Q820 1278 782.5 1287.5 Q745 1297 703 1301.5 Q661 1306 614.5 1306.5 Q568 1307 516 1307 L360 1307 L360 748 L518 748 Z " />
<glyph glyph-name="Q" unicode="Q" horiz-adv-x="1671" d="M276 741 Q276 619 318 512.5 Q360 406 434.5 327.5 Q509 249 611.5 203.5 Q714 158 836 158 Q957 158 1059.5 203.5 Q1162 249 1236.5 327.5 Q1311 406 1353 512.5 Q1395 619 1395 741 Q1395 863 1353 969.5 Q1311 1076 1236.5 1155 Q1162 1234 1059.5 1279.5 Q957 1325 836 1325 Q714 1325 611.5 1279.5 Q509 1234 434.5 1155 Q360 1076 318 969.5 Q276 863 276 741 Z M973 -10 Q939 -16 905 -19.5 Q871 -23 836 -23 Q728 -23 630.5 3.5 Q533 30 449.5 79.5 Q366 129 298 198 Q230 267 182 352 Q134 437 108 535 Q82 633 82 741 Q82 848 108 946.5 Q134 1045 182 1130 Q230 1215 298 1284 Q366 1353 449.5 1402.5 Q533 1452 631 1478.5 Q729 1505 836 1505 Q943 1505 1041 1478.5 Q1139 1452 1222.5 1402.5 Q1306 1353 1373.5 1284 Q1441 1215 1489 1130 Q1537 1045 1563 946.5 Q1589 848 1589 741 Q1589 624 1558.5 518 Q1528 412 1472 322.5 Q1416 233 1337 162.5 Q1258 92 1161 47 L1417 -383 L1184 -383 L973 -10 Z " />
<glyph glyph-name="R" unicode="R" horiz-adv-x="1296" d="M592 788 Q691 788 761.5 803 Q832 818 883 858 Q925 889 948 935 Q971 981 971 1044 Q971 1116 940 1170.5 Q909 1225 850 1257 Q820 1274 787 1284 Q754 1294 715 1299 Q676 1304 631 1305.5 Q586 1307 532 1307 L360 1307 L360 788 L592 788 Z M1030 0 L616 623 L360 623 L360 0 L166 0 L166 1483 L547 1483 Q603 1483 657.5 1481 Q712 1479 764.5 1471.5 Q817 1464 866.5 1449 Q916 1434 961 1409 Q1007 1383 1044.5 1348 Q1082 1313 1109 1269.5 Q1136 1226 1150.5 1173 Q1165 1120 1165 1057 Q1165 980 1142 912 Q1119 844 1075 790 Q1031 736 968 698.5 Q905 661 825 645 L1266 0 L1030 0 Z " />
<glyph glyph-name="S" unicode="S" horiz-adv-x="1133" d="M119 317 Q172 275 229.5 244.5 Q287 214 344.5 194.5 Q402 175 457.5 165.5 Q513 156 561 156 Q627 156 681 172.5 Q735 189 773.5 220.5 Q812 252 833 297.5 Q854 343 854 401 Q854 469 827 513 Q800 557 753 587 Q706 617 643 637 Q580 657 508 678 Q431 700 357.5 729.5 Q284 759 226 806 Q168 853 133 922 Q98 991 98 1092 Q98 1185 130.5 1261.5 Q163 1338 224 1392 Q285 1446 370.5 1475.5 Q456 1505 563 1505 Q618 1505 673.5 1497 Q729 1489 782.5 1474 Q836 1459 885.5 1436.5 Q935 1414 977 1386 L977 1182 Q926 1219 872 1246 Q818 1273 764.5 1291 Q711 1309 659 1318 Q607 1327 561 1327 Q500 1327 450.5 1312 Q401 1297 366 1268.5 Q331 1240 312 1198.5 Q293 1157 293 1104 Q293 1041 320 999.5 Q347 958 393.5 929 Q440 900 502 880 Q564 860 633 840 Q717 815 792.5 782.5 Q868 750 925 701 Q982 652 1015.5 582 Q1049 512 1049 412 Q1049 311 1013.5 230.5 Q978 150 914 93.5 Q850 37 760.5 7 Q671 -23 563 -23 Q506 -23 446 -13.5 Q386 -4 328 12.5 Q270 29 217 52.5 Q164 76 119 104 L119 317 Z " />
<glyph glyph-name="T" unicode="T" horiz-adv-x="1272" d="M539 1307 L41 1307 L41 1483 L1231 1483 L1231 1307 L733 1307 L733 0 L539 0 L539 1307 Z " />
<glyph glyph-name="U" unicode="U" horiz-adv-x="1495" d="M1346 721 Q1346 640 1342.5 568.5 Q1339 497 1328.5 433.5 Q1318 370 1298.5 314 Q1279 258 1247 209 Q1176 101 1047.5 39 Q919 -23 745 -23 Q658 -23 582.5 -6.5 Q507 10 444 40 Q381 70 331.5 113 Q282 156 248 209 Q216 259 196.5 315.5 Q177 372 166.5 434 Q156 496 153 562.5 Q150 629 150 698 L150 1483 L344 1483 L344 719 Q344 651 346.5 594.5 Q349 538 355.5 491.5 Q362 445 373 406.5 Q384 368 401 336 Q420 300 450.5 267.5 Q481 235 524 211 Q567 187 624 172.5 Q681 158 754 158 Q889 158 973.5 206 Q1058 254 1102 336 Q1137 402 1147 493.5 Q1157 585 1157 711 L1157 1483 L1346 1483 L1346 721 Z " />
<glyph glyph-name="V" unicode="V" horiz-adv-x="1374" d="M537 748 Q583 643 619.5 557 Q656 471 690 391 L694 391 Q728 471 764.5 557 Q801 643 848 748 L1169 1483 L1374 1483 L690 -51 L686 -51 L0 1483 L215 1483 L537 748 Z " />
<glyph glyph-name="W" unicode="W" horiz-adv-x="2128" d="M516 733 Q547 653 574.5 579.5 Q602 506 627 438 L631 438 Q643 470 655 500.5 Q667 531 679.5 564 Q692 597 707.5 636 Q723 675 743 725 L1067 1534 L1071 1534 L1395 721 Q1413 675 1428 637 Q1443 599 1456 565.5 Q1469 532 1481 501 Q1493 470 1505 438 L1509 438 Q1522 472 1534.5 505.5 Q1547 539 1560.5 574.5 Q1574 610 1589 649.5 Q1604 689 1622 735 L1909 1483 L2111 1483 L1513 -51 L1509 -51 L1165 791 Q1137 859 1113 920 Q1089 981 1067 1036 L1063 1036 Q1041 979 1015.5 915.5 Q990 852 963 784 L621 -51 L616 -51 L16 1483 L229 1483 L516 733 Z " />
<glyph glyph-name="X" unicode="X" horiz-adv-x="1350" d="M551 786 L63 1483 L295 1483 L522 1155 Q562 1098 602 1040 Q642 982 682 922 L686 922 Q728 985 768 1043 Q808 1101 846 1157 L1071 1483 L1288 1483 L803 786 L1358 0 L1124 0 L840 406 Q793 472 752.5 530.5 Q712 589 672 649 L668 649 Q629 592 588 533 Q547 474 504 412 L215 0 L-4 0 L551 786 Z " />
<glyph glyph-name="Y" unicode="Y" horiz-adv-x="1341" d="M575 662 L4 1483 L236 1483 L483 1118 Q533 1046 581 974 Q629 902 674 834 L678 834 Q721 899 771.5 974 Q822 1049 870 1120 L1116 1483 L1337 1483 L770 664 L770 0 L575 0 L575 662 Z " />
<glyph glyph-name="Z" unicode="Z" horiz-adv-x="1309" d="M61 0 L59 4 L899 1303 L897 1307 L113 1307 L113 1483 L1239 1483 L1241 1479 L401 180 L403 176 L1225 176 L1225 0 L61 0 Z " />
<glyph glyph-name="Agrave" unicode="&#xc0;" horiz-adv-x="1440" d="M965 569 L864 788 Q817 893 781.5 971.5 Q746 1050 717 1116 L713 1116 Q698 1083 683 1048.5 Q668 1014 650 974.5 Q632 935 611 889 Q590 843 565 788 L465 569 L965 569 Z M1042 399 L387 399 L205 0 L0 0 L717 1534 L721 1534 L1440 0 L1225 0 L1042 399 Z M473 1934 L680 1934 L838 1598 L699 1598 L473 1934 Z " />
<glyph glyph-name="Aacute" unicode="&#xc1;" horiz-adv-x="1440" d="M965 569 L864 788 Q817 893 781.5 971.5 Q746 1050 717 1116 L713 1116 Q698 1083 683 1048.5 Q668 1014 650 974.5 Q632 935 611 889 Q590 843 565 788 L465 569 L965 569 Z M1042 399 L387 399 L205 0 L0 0 L717 1534 L721 1534 L1440 0 L1225 0 L1042 399 Z M740 1598 L600 1598 L758 1934 L965 1934 L740 1598 Z " />
<glyph glyph-name="Acircumflex" unicode="&#xc2;" horiz-adv-x="1440" d="M965 569 L864 788 Q817 893 781.5 971.5 Q746 1050 717 1116 L713 1116 Q698 1083 683 1048.5 Q668 1014 650 974.5 Q632 935 611 889 Q590 843 565 788 L465 569 L965 569 Z M1042 399 L387 399 L205 0 L0 0 L717 1534 L721 1534 L1440 0 L1225 0 L1042 399 Z M389 1606 L715 1954 L723 1954 L1049 1606 L867 1606 L717 1756 L567 1606 L389 1606 Z " />
<glyph glyph-name="Atilde" unicode="&#xc3;" horiz-adv-x="1440" d="M965 569 L864 788 Q817 893 781.5 971.5 Q746 1050 717 1116 L713 1116 Q698 1083 683 1048.5 Q668 1014 650 974.5 Q632 935 611 889 Q590 843 565 788 L465 569 L965 569 Z M1042 399 L387 399 L205 0 L0 0 L717 1534 L721 1534 L1440 0 L1225 0 L1042 399 Z M398 1805 Q425 1843 468.5 1868 Q512 1893 567 1893 Q608 1893 647.5 1880 Q687 1867 733 1844 Q778 1821 808.5 1809 Q839 1797 871 1797 Q898 1797 922 1805.5 Q946 1814 966 1828 Q986 1842 1003.5 1859.5 Q1021 1877 1036 1895 L1041 1893 L1041 1733 Q1013 1695 969.5 1670 Q926 1645 871 1645 Q830 1645 790.5 1658 Q751 1671 705 1694 Q660 1717 630 1729 Q600 1741 567 1741 Q540 1741 516.5 1732.5 Q493 1724 472.5 1710 Q452 1696 434.5 1678.5 Q417 1661 402 1643 L398 1645 L398 1805 Z " />
<glyph glyph-name="Adieresis" unicode="&#xc4;" horiz-adv-x="1440" d="M965 569 L864 788 Q817 893 781.5 971.5 Q746 1050 717 1116 L713 1116 Q698 1083 683 1048.5 Q668 1014 650 974.5 Q632 935 611 889 Q590 843 565 788 L465 569 L965 569 Z M1042 399 L387 399 L205 0 L0 0 L717 1534 L721 1534 L1440 0 L1225 0 L1042 399 Z M807 1766 Q807 1789 816 1809.5 Q825 1830 840.5 1845.5 Q856 1861 876.5 1870 Q897 1879 920 1879 Q943 1879 963.5 1870 Q984 1861 999 1845.5 Q1014 1830 1023 1809.5 Q1032 1789 1032 1766 Q1032 1743 1023 1722.5 Q1014 1702 999 1686.5 Q984 1671 963.5 1662 Q943 1653 920 1653 Q897 1653 876.5 1662 Q856 1671 840.5 1686.5 Q825 1702 816 1722.5 Q807 1743 807 1766 Z M406 1766 Q406 1789 415 1809.5 Q424 1830 439 1845.5 Q454 1861 474.5 1870 Q495 1879 518 1879 Q541 1879 561.5 1870 Q582 1861 597.5 1845.5 Q613 1830 622 1809.5 Q631 1789 631 1766 Q631 1743 622 1722.5 Q613 1702 597.5 1686.5 Q582 1671 561.5 1662 Q541 1653 518 1653 Q495 1653 474.5 1662 Q454 1671 439 1686.5 Q424 1702 415 1722.5 Q406 1743 406 1766 Z " />
<glyph glyph-name="Amacron" unicode="&#x100;" horiz-adv-x="1440" d="M965 569 L864 788 Q817 893 781.5 971.5 Q746 1050 717 1116 L713 1116 Q698 1083 683 1048.5 Q668 1014 650 974.5 Q632 935 611 889 Q590 843 565 788 L465 569 L965 569 Z M1042 399 L387 399 L205 0 L0 0 L717 1534 L721 1534 L1440 0 L1225 0 L1042 399 Z M438 1836 L1000 1836 L1000 1696 L438 1696 L438 1836 Z " />
<glyph glyph-name="Abreve" unicode="&#x102;" horiz-adv-x="1440" d="M965 569 L864 788 Q817 893 781.5 971.5 Q746 1050 717 1116 L713 1116 Q698 1083 683 1048.5 Q668 1014 650 974.5 Q632 935 611 889 Q590 843 565 788 L465 569 L965 569 Z M1042 399 L387 399 L205 0 L0 0 L717 1534 L721 1534 L1440 0 L1225 0 L1042 399 Z M1004 1920 Q1002 1855 983.5 1799.5 Q965 1744 929.5 1703.5 Q894 1663 841.5 1639.5 Q789 1616 719 1616 Q648 1616 596 1639.5 Q544 1663 508.5 1703.5 Q473 1744 455 1799.5 Q437 1855 434 1920 L553 1920 Q556 1884 566 1849.5 Q576 1815 595.5 1789 Q615 1763 645 1747 Q675 1731 719 1731 Q763 1731 793 1747 Q823 1763 842.5 1789 Q862 1815 872 1849.5 Q882 1884 885 1920 L1004 1920 Z " />
<glyph glyph-name="Aring" unicode="&#xc5;" horiz-adv-x="1440" d="M965 569 L864 788 Q817 893 781.5 971.5 Q746 1050 717 1116 L713 1116 Q698 1083 683 1048.5 Q668 1014 650 974.5 Q632 935 611 889 Q590 843 565 788 L465 569 L965 569 Z M1042 399 L387 399 L205 0 L0 0 L717 1534 L721 1534 L1440 0 L1225 0 L1042 399 Z M719 1573 Q668 1573 624.5 1591 Q581 1609 548.5 1640.5 Q516 1672 497.5 1714.5 Q479 1757 479 1807 Q479 1857 497.5 1899.5 Q516 1942 548.5 1973.5 Q581 2005 624.5 2022.5 Q668 2040 719 2040 Q770 2040 813.5 2022.5 Q857 2005 889.5 1973.5 Q922 1942 940.5 1899.5 Q959 1857 959 1807 Q959 1757 940.5 1714.5 Q922 1672 889.5 1640.5 Q857 1609 813.5 1591 Q770 1573 719 1573 Z M719 1676 Q749 1676 773 1686.5 Q797 1697 813.5 1714.5 Q830 1732 839 1756 Q848 1780 848 1807 Q848 1834 839 1858 Q830 1882 813.5 1899.5 Q797 1917 773 1927.5 Q749 1938 719 1938 Q689 1938 665 1927.5 Q641 1917 624.5 1899.5 Q608 1882 599 1858 Q590 1834 590 1807 Q590 1780 599 1756 Q608 1732 624.5 1714.5 Q641 1697 665 1686.5 Q689 1676 719 1676 Z " />
<glyph glyph-name="Aogonek" unicode="&#x104;" horiz-adv-x="1440" d="M1423 -455 Q1400 -463 1370 -468 Q1340 -473 1309 -473 Q1256 -473 1213.5 -458 Q1171 -443 1141 -416 Q1111 -389 1095 -351 Q1079 -313 1079 -268 Q1079 -230 1090.5 -192.5 Q1102 -155 1122 -120.5 Q1142 -86 1168.5 -55.5 Q1195 -25 1225 0 L1042 399 L387 399 L205 0 L0 0 L717 1534 L721 1534 L1440 0 Q1387 -24 1348.5 -53.5 Q1310 -83 1285 -114.5 Q1260 -146 1247.5 -178.5 Q1235 -211 1235 -240 Q1235 -289 1261.5 -316.5 Q1288 -344 1339 -344 Q1356 -344 1379.5 -341 Q1403 -338 1423 -332 L1423 -455 Z M965 569 L864 788 Q817 893 781.5 971.5 Q746 1050 717 1116 L713 1116 Q698 1083 683 1048.5 Q668 1014 650 974.5 Q632 935 611 889 Q590 843 565 788 L465 569 L965 569 Z " />
<glyph glyph-name="AE" unicode="&#xc6;" horiz-adv-x="1903" d="M965 836 Q965 883 965 927 Q965 971 965 1015.5 Q965 1060 965.5 1105.5 Q966 1151 967 1200 L963 1200 Q940 1162 912 1116 Q884 1070 854 1021.5 Q824 973 793.5 923 Q763 873 735 827 L575 569 L965 569 L965 836 Z M1815 176 L1815 0 L965 0 L965 399 L471 399 L225 0 L10 0 L944 1483 L1796 1483 L1796 1307 L1159 1307 L1159 848 L1714 848 L1714 678 L1159 678 L1159 176 L1815 176 Z " />
<glyph glyph-name="AEacute" unicode="&#x1fc;" horiz-adv-x="1903" d="M965 836 Q965 883 965 927 Q965 971 965 1015.5 Q965 1060 965.5 1105.5 Q966 1151 967 1200 L963 1200 Q940 1162 912 1116 Q884 1070 854 1021.5 Q824 973 793.5 923 Q763 873 735 827 L575 569 L965 569 L965 836 Z M1815 176 L1815 0 L965 0 L965 399 L471 399 L225 0 L10 0 L944 1483 L1796 1483 L1796 1307 L1159 1307 L1159 848 L1714 848 L1714 678 L1159 678 L1159 176 L1815 176 Z M1297 1598 L1157 1598 L1315 1934 L1522 1934 L1297 1598 Z " />
<glyph glyph-name="Cacute" unicode="&#x106;" horiz-adv-x="1378" d="M1278 90 Q1190 34 1079.5 5.5 Q969 -23 854 -23 Q687 -23 545.5 35 Q404 93 301 195 Q198 297 140 436 Q82 575 82 737 Q82 896 137.5 1036 Q193 1176 294 1280 Q395 1384 536.5 1444.5 Q678 1505 850 1505 Q964 1505 1067.5 1478 Q1171 1451 1257 1403 L1257 1188 Q1176 1250 1071 1287.5 Q966 1325 848 1325 Q723 1325 618 1280 Q513 1235 437 1156 Q361 1077 318.5 970.5 Q276 864 276 741 Q276 618 318.5 511.5 Q361 405 438.5 326.5 Q516 248 623.5 203 Q731 158 862 158 Q983 158 1088 197 Q1193 236 1278 307 L1278 90 Z M914 1598 L774 1598 L932 1934 L1139 1934 L914 1598 Z " />
<glyph glyph-name="Ccircumflex" unicode="&#x108;" horiz-adv-x="1378" d="M1278 90 Q1190 34 1079.5 5.5 Q969 -23 854 -23 Q687 -23 545.5 35 Q404 93 301 195 Q198 297 140 436 Q82 575 82 737 Q82 896 137.5 1036 Q193 1176 294 1280 Q395 1384 536.5 1444.5 Q678 1505 850 1505 Q964 1505 1067.5 1478 Q1171 1451 1257 1403 L1257 1188 Q1176 1250 1071 1287.5 Q966 1325 848 1325 Q723 1325 618 1280 Q513 1235 437 1156 Q361 1077 318.5 970.5 Q276 864 276 741 Q276 618 318.5 511.5 Q361 405 438.5 326.5 Q516 248 623.5 203 Q731 158 862 158 Q983 158 1088 197 Q1193 236 1278 307 L1278 90 Z M460 1606 L786 1954 L794 1954 L1120 1606 L938 1606 L788 1756 L638 1606 L460 1606 Z " />
<glyph glyph-name="Ccaron" unicode="&#x10c;" horiz-adv-x="1378" d="M1278 90 Q1190 34 1079.5 5.5 Q969 -23 854 -23 Q687 -23 545.5 35 Q404 93 301 195 Q198 297 140 436 Q82 575 82 737 Q82 896 137.5 1036 Q193 1176 294 1280 Q395 1384 536.5 1444.5 Q678 1505 850 1505 Q964 1505 1067.5 1478 Q1171 1451 1257 1403 L1257 1188 Q1176 1250 1071 1287.5 Q966 1325 848 1325 Q723 1325 618 1280 Q513 1235 437 1156 Q361 1077 318.5 970.5 Q276 864 276 741 Q276 618 318.5 511.5 Q361 405 438.5 326.5 Q516 248 623.5 203 Q731 158 862 158 Q983 158 1088 197 Q1193 236 1278 307 L1278 90 Z M1120 1926 L794 1578 L786 1578 L460 1926 L643 1926 L792 1776 L942 1926 L1120 1926 Z " />
<glyph glyph-name="Cdotaccent" unicode="&#x10a;" horiz-adv-x="1378" d="M1278 90 Q1190 34 1079.5 5.5 Q969 -23 854 -23 Q687 -23 545.5 35 Q404 93 301 195 Q198 297 140 436 Q82 575 82 737 Q82 896 137.5 1036 Q193 1176 294 1280 Q395 1384 536.5 1444.5 Q678 1505 850 1505 Q964 1505 1067.5 1478 Q1171 1451 1257 1403 L1257 1188 Q1176 1250 1071 1287.5 Q966 1325 848 1325 Q723 1325 618 1280 Q513 1235 437 1156 Q361 1077 318.5 970.5 Q276 864 276 741 Q276 618 318.5 511.5 Q361 405 438.5 326.5 Q516 248 623.5 203 Q731 158 862 158 Q983 158 1088 197 Q1193 236 1278 307 L1278 90 Z M792 1653 Q768 1653 747.5 1661.5 Q727 1670 712 1685.5 Q697 1701 688 1721.5 Q679 1742 679 1766 Q679 1790 688 1810.5 Q697 1831 712 1846 Q727 1861 747.5 1870 Q768 1879 792 1879 Q816 1879 836.5 1870 Q857 1861 872.5 1846 Q888 1831 896.5 1810.5 Q905 1790 905 1766 Q905 1742 896.5 1721.5 Q888 1701 872.5 1685.5 Q857 1670 836.5 1661.5 Q816 1653 792 1653 Z " />
<glyph glyph-name="Ccedilla" unicode="&#xc7;" horiz-adv-x="1378" d="M1278 90 Q1190 34 1079.5 5.5 Q969 -23 854 -23 L813 -23 L793 -88 Q876 -107 925.5 -151 Q975 -195 975 -272 Q975 -313 960 -346.5 Q945 -380 917 -403.5 Q889 -427 849 -440 Q809 -453 760 -453 Q712 -453 669.5 -442 Q627 -431 596 -416 L627 -311 Q661 -328 694 -339 Q727 -350 758 -350 Q798 -350 827 -332 Q856 -314 856 -279 Q856 -250 837 -230.5 Q818 -211 789.5 -199.5 Q761 -188 728 -183 Q695 -178 668 -176 L717 -12 Q576 10 459.5 75.5 Q343 141 259 239.5 Q175 338 128.5 465 Q82 592 82 737 Q82 896 137.5 1036 Q193 1176 294 1280 Q395 1384 536.5 1444.5 Q678 1505 850 1505 Q964 1505 1067.5 1478 Q1171 1451 1257 1403 L1257 1188 Q1176 1250 1071 1287.5 Q966 1325 848 1325 Q723 1325 618 1280 Q513 1235 437 1156 Q361 1077 318.5 970.5 Q276 864 276 741 Q276 618 318.5 511.5 Q361 405 438.5 326.5 Q516 248 623.5 203 Q731 158 862 158 Q983 158 1088 197 Q1193 236 1278 307 L1278 90 Z " />
<glyph glyph-name="Dcaron" unicode="&#x10e;" horiz-adv-x="1505" d="M166 1483 L573 1483 Q722 1483 853.5 1456.5 Q985 1430 1098 1362 Q1178 1314 1240 1248 Q1302 1182 1344 1103.5 Q1386 1025 1408 935 Q1430 845 1430 748 Q1430 656 1410.5 569.5 Q1391 483 1353 406.5 Q1315 330 1260 265 Q1205 200 1135 150 Q1016 67 866 33.5 Q716 0 524 0 L166 0 L166 1483 Z M555 176 Q688 176 797 197 Q906 218 995 274 Q1048 308 1092.5 356 Q1137 404 1168.5 463.5 Q1200 523 1217.5 593 Q1235 663 1235 741 Q1235 822 1216.5 892 Q1198 962 1166 1020.5 Q1134 1079 1090.5 1125 Q1047 1171 997 1204 Q949 1236 895.5 1256 Q842 1276 785.5 1287.5 Q729 1299 670 1303 Q611 1307 551 1307 L360 1307 L360 176 L555 176 Z M1020 1926 L694 1578 L686 1578 L360 1926 L543 1926 L692 1776 L842 1926 L1020 1926 Z " />
<glyph glyph-name="Dcroat" unicode="&#x110;" horiz-adv-x="1528" d="M6 836 L188 836 L188 1483 L596 1483 Q745 1483 876.5 1456.5 Q1008 1430 1120 1362 Q1200 1314 1262 1248 Q1324 1182 1366 1103.5 Q1408 1025 1430 935 Q1452 845 1452 748 Q1452 656 1432.5 569.5 Q1413 483 1375.5 406.5 Q1338 330 1283 265 Q1228 200 1157 150 Q1038 67 888.5 33.5 Q739 0 547 0 L188 0 L188 676 L6 676 L6 836 Z M578 176 Q711 176 820 197 Q929 218 1018 274 Q1071 308 1115 356 Q1159 404 1190.5 463.5 Q1222 523 1239.5 593 Q1257 663 1257 741 Q1257 822 1238.5 892 Q1220 962 1188 1020.5 Q1156 1079 1113 1125 Q1070 1171 1020 1204 Q972 1236 918.5 1256 Q865 1276 808 1287.5 Q751 1299 692 1303 Q633 1307 573 1307 L383 1307 L383 836 L702 836 L702 676 L383 676 L383 176 L578 176 Z " />
<glyph glyph-name="Egrave" unicode="&#xc8;" horiz-adv-x="1128" d="M166 1483 L1022 1483 L1022 1307 L360 1307 L360 848 L940 848 L940 678 L360 678 L360 176 L1040 176 L1040 0 L166 0 L166 1483 Z M346 1934 L553 1934 L711 1598 L572 1598 L346 1934 Z " />
<glyph glyph-name="Eacute" unicode="&#xc9;" horiz-adv-x="1128" d="M166 1483 L1022 1483 L1022 1307 L360 1307 L360 848 L940 848 L940 678 L360 678 L360 176 L1040 176 L1040 0 L166 0 L166 1483 Z M613 1598 L473 1598 L631 1934 L838 1934 L613 1598 Z " />
<glyph glyph-name="Ecircumflex" unicode="&#xca;" horiz-adv-x="1128" d="M166 1483 L1022 1483 L1022 1307 L360 1307 L360 848 L940 848 L940 678 L360 678 L360 176 L1040 176 L1040 0 L166 0 L166 1483 Z M262 1606 L588 1954 L596 1954 L922 1606 L740 1606 L590 1756 L440 1606 L262 1606 Z " />
<glyph glyph-name="Ecaron" unicode="&#x11a;" horiz-adv-x="1128" d="M166 1483 L1022 1483 L1022 1307 L360 1307 L360 848 L940 848 L940 678 L360 678 L360 176 L1040 176 L1040 0 L166 0 L166 1483 Z M922 1926 L596 1578 L588 1578 L262 1926 L445 1926 L594 1776 L744 1926 L922 1926 Z " />
<glyph glyph-name="Edieresis" unicode="&#xcb;" horiz-adv-x="1128" d="M166 1483 L1022 1483 L1022 1307 L360 1307 L360 848 L940 848 L940 678 L360 678 L360 176 L1040 176 L1040 0 L166 0 L166 1483 Z M680 1766 Q680 1789 689 1809.5 Q698 1830 713.5 1845.5 Q729 1861 749.5 1870 Q770 1879 793 1879 Q816 1879 836.5 1870 Q857 1861 872 1845.5 Q887 1830 896 1809.5 Q905 1789 905 1766 Q905 1743 896 1722.5 Q887 1702 872 1686.5 Q857 1671 836.5 1662 Q816 1653 793 1653 Q770 1653 749.5 1662 Q729 1671 713.5 1686.5 Q698 1702 689 1722.5 Q680 1743 680 1766 Z M279 1766 Q279 1789 288 1809.5 Q297 1830 312 1845.5 Q327 1861 347.5 1870 Q368 1879 391 1879 Q414 1879 434.5 1870 Q455 1861 470.5 1845.5 Q486 1830 495 1809.5 Q504 1789 504 1766 Q504 1743 495 1722.5 Q486 1702 470.5 1686.5 Q455 1671 434.5 1662 Q414 1653 391 1653 Q368 1653 347.5 1662 Q327 1671 312 1686.5 Q297 1702 288 1722.5 Q279 1743 279 1766 Z " />
<glyph glyph-name="Emacron" unicode="&#x112;" horiz-adv-x="1128" d="M166 1483 L1022 1483 L1022 1307 L360 1307 L360 848 L940 848 L940 678 L360 678 L360 176 L1040 176 L1040 0 L166 0 L166 1483 Z M311 1836 L873 1836 L873 1696 L311 1696 L311 1836 Z " />
<glyph glyph-name="Ebreve" unicode="&#x114;" horiz-adv-x="1128" d="M166 1483 L1022 1483 L1022 1307 L360 1307 L360 848 L940 848 L940 678 L360 678 L360 176 L1040 176 L1040 0 L166 0 L166 1483 Z M877 1920 Q875 1855 856.5 1799.5 Q838 1744 802.5 1703.5 Q767 1663 714.5 1639.5 Q662 1616 592 1616 Q521 1616 469 1639.5 Q417 1663 381.5 1703.5 Q346 1744 328 1799.5 Q310 1855 307 1920 L426 1920 Q429 1884 439 1849.5 Q449 1815 468.5 1789 Q488 1763 518 1747 Q548 1731 592 1731 Q636 1731 666 1747 Q696 1763 715.5 1789 Q735 1815 745 1849.5 Q755 1884 758 1920 L877 1920 Z " />
<glyph glyph-name="Edotaccent" unicode="&#x116;" horiz-adv-x="1128" d="M166 1483 L1022 1483 L1022 1307 L360 1307 L360 848 L940 848 L940 678 L360 678 L360 176 L1040 176 L1040 0 L166 0 L166 1483 Z M594 1653 Q570 1653 549.5 1661.5 Q529 1670 514 1685.5 Q499 1701 490 1721.5 Q481 1742 481 1766 Q481 1790 490 1810.5 Q499 1831 514 1846 Q529 1861 549.5 1870 Q570 1879 594 1879 Q618 1879 638.5 1870 Q659 1861 674.5 1846 Q690 1831 698.5 1810.5 Q707 1790 707 1766 Q707 1742 698.5 1721.5 Q690 1701 674.5 1685.5 Q659 1670 638.5 1661.5 Q618 1653 594 1653 Z " />
<glyph glyph-name="Eogonek" unicode="&#x118;" horiz-adv-x="1128" d="M166 1483 L1022 1483 L1022 1307 L360 1307 L360 848 L940 848 L940 678 L360 678 L360 176 L1040 176 L1040 0 Q996 -21 961.5 -50 Q927 -79 902.5 -111.5 Q878 -144 865 -178.5 Q852 -213 852 -244 Q852 -289 878.5 -316.5 Q905 -344 956 -344 Q973 -344 996 -341 Q1019 -338 1040 -332 L1040 -455 Q1016 -463 986.5 -468 Q957 -473 926 -473 Q873 -473 830.5 -457.5 Q788 -442 758 -415 Q728 -388 712 -351 Q696 -314 696 -270 Q696 -199 734.5 -129.5 Q773 -60 842 -4 L840 0 L166 0 L166 1483 Z " />
<glyph glyph-name="Gcircumflex" unicode="&#x11c;" horiz-adv-x="1491" d="M825 739 L1352 739 L1352 123 Q1304 89 1245 62 Q1186 35 1121.5 16 Q1057 -3 988.5 -13 Q920 -23 852 -23 Q742 -23 643 3 Q544 29 458.5 77 Q373 125 304 193 Q235 261 186 345.5 Q137 430 110.5 529 Q84 628 84 737 Q84 899 141 1039 Q198 1179 301 1282.5 Q404 1386 547 1445.5 Q690 1505 862 1505 Q931 1505 994 1495.5 Q1057 1486 1113 1470 Q1169 1454 1217.5 1432.5 Q1266 1411 1307 1386 L1307 1167 Q1219 1239 1103.5 1282 Q988 1325 860 1325 Q730 1325 623 1279.5 Q516 1234 439.5 1155 Q363 1076 321 969.5 Q279 863 279 741 Q279 621 320 514.5 Q361 408 437 328 Q513 248 621.5 201 Q730 154 866 154 Q948 154 1022.5 171 Q1097 188 1157 219 L1157 569 L825 569 L825 739 Z M456 1606 L782 1954 L790 1954 L1116 1606 L934 1606 L784 1756 L634 1606 L456 1606 Z " />
<glyph glyph-name="Gbreve" unicode="&#x11e;" horiz-adv-x="1491" d="M825 739 L1352 739 L1352 123 Q1304 89 1245 62 Q1186 35 1121.5 16 Q1057 -3 988.5 -13 Q920 -23 852 -23 Q742 -23 643 3 Q544 29 458.5 77 Q373 125 304 193 Q235 261 186 345.5 Q137 430 110.5 529 Q84 628 84 737 Q84 899 141 1039 Q198 1179 301 1282.5 Q404 1386 547 1445.5 Q690 1505 862 1505 Q931 1505 994 1495.5 Q1057 1486 1113 1470 Q1169 1454 1217.5 1432.5 Q1266 1411 1307 1386 L1307 1167 Q1219 1239 1103.5 1282 Q988 1325 860 1325 Q730 1325 623 1279.5 Q516 1234 439.5 1155 Q363 1076 321 969.5 Q279 863 279 741 Q279 621 320 514.5 Q361 408 437 328 Q513 248 621.5 201 Q730 154 866 154 Q948 154 1022.5 171 Q1097 188 1157 219 L1157 569 L825 569 L825 739 Z M1071 1920 Q1069 1855 1050.5 1799.5 Q1032 1744 996.5 1703.5 Q961 1663 908.5 1639.5 Q856 1616 786 1616 Q715 1616 663 1639.5 Q611 1663 575.5 1703.5 Q540 1744 522 1799.5 Q504 1855 501 1920 L620 1920 Q623 1884 633 1849.5 Q643 1815 662.5 1789 Q682 1763 712 1747 Q742 1731 786 1731 Q830 1731 860 1747 Q890 1763 909.5 1789 Q929 1815 939 1849.5 Q949 1884 952 1920 L1071 1920 Z " />
<glyph glyph-name="Gdotaccent" unicode="&#x120;" horiz-adv-x="1491" d="M825 739 L1352 739 L1352 123 Q1304 89 1245 62 Q1186 35 1121.5 16 Q1057 -3 988.5 -13 Q920 -23 852 -23 Q742 -23 643 3 Q544 29 458.5 77 Q373 125 304 193 Q235 261 186 345.5 Q137 430 110.5 529 Q84 628 84 737 Q84 899 141 1039 Q198 1179 301 1282.5 Q404 1386 547 1445.5 Q690 1505 862 1505 Q931 1505 994 1495.5 Q1057 1486 1113 1470 Q1169 1454 1217.5 1432.5 Q1266 1411 1307 1386 L1307 1167 Q1219 1239 1103.5 1282 Q988 1325 860 1325 Q730 1325 623 1279.5 Q516 1234 439.5 1155 Q363 1076 321 969.5 Q279 863 279 741 Q279 621 320 514.5 Q361 408 437 328 Q513 248 621.5 201 Q730 154 866 154 Q948 154 1022.5 171 Q1097 188 1157 219 L1157 569 L825 569 L825 739 Z M788 1653 Q764 1653 743.5 1661.5 Q723 1670 708 1685.5 Q693 1701 684 1721.5 Q675 1742 675 1766 Q675 1790 684 1810.5 Q693 1831 708 1846 Q723 1861 743.5 1870 Q764 1879 788 1879 Q812 1879 832.5 1870 Q853 1861 868.5 1846 Q884 1831 892.5 1810.5 Q901 1790 901 1766 Q901 1742 892.5 1721.5 Q884 1701 868.5 1685.5 Q853 1670 832.5 1661.5 Q812 1653 788 1653 Z " />
<glyph glyph-name="Gcommaaccent" unicode="&#x122;" horiz-adv-x="1491" d="M825 739 L1352 739 L1352 123 Q1304 89 1245 62 Q1186 35 1121.5 16 Q1057 -3 988.5 -13 Q920 -23 852 -23 Q742 -23 643 3 Q544 29 458.5 77 Q373 125 304 193 Q235 261 186 345.5 Q137 430 110.5 529 Q84 628 84 737 Q84 899 141 1039 Q198 1179 301 1282.5 Q404 1386 547 1445.5 Q690 1505 862 1505 Q931 1505 994 1495.5 Q1057 1486 1113 1470 Q1169 1454 1217.5 1432.5 Q1266 1411 1307 1386 L1307 1167 Q1219 1239 1103.5 1282 Q988 1325 860 1325 Q730 1325 623 1279.5 Q516 1234 439.5 1155 Q363 1076 321 969.5 Q279 863 279 741 Q279 621 320 514.5 Q361 408 437 328 Q513 248 621.5 201 Q730 154 866 154 Q948 154 1022.5 171 Q1097 188 1157 219 L1157 569 L825 569 L825 739 Z M929 -111 L774 -557 L641 -557 L749 -111 L929 -111 Z " />
<glyph glyph-name="Hcircumflex" unicode="&#x124;" horiz-adv-x="1528" d="M166 1483 L360 1483 L360 850 L1167 850 L1167 1483 L1362 1483 L1362 0 L1167 0 L1167 674 L360 674 L360 0 L166 0 L166 1483 Z M434 1606 L760 1954 L768 1954 L1094 1606 L912 1606 L762 1756 L612 1606 L434 1606 Z " />
<glyph glyph-name="Hbar" unicode="&#x126;" horiz-adv-x="1528" d="M4 1249 L166 1249 L166 1483 L360 1483 L360 1249 L1167 1249 L1167 1483 L1362 1483 L1362 1249 L1524 1249 L1524 1090 L1362 1090 L1362 0 L1167 0 L1167 674 L360 674 L360 0 L166 0 L166 1090 L4 1090 L4 1249 Z M1167 850 L1167 1090 L360 1090 L360 850 L1167 850 Z " />
<glyph glyph-name="Igrave" unicode="&#xcc;" horiz-adv-x="526" d="M166 1483 L360 1483 L360 0 L166 0 L166 1483 Z M17 1934 L224 1934 L382 1598 L243 1598 L17 1934 Z " />
<glyph glyph-name="Iacute" unicode="&#xcd;" horiz-adv-x="526" d="M166 1483 L360 1483 L360 0 L166 0 L166 1483 Z M284 1598 L144 1598 L302 1934 L509 1934 L284 1598 Z " />
<glyph glyph-name="Icircumflex" unicode="&#xce;" horiz-adv-x="526" d="M166 1483 L360 1483 L360 0 L166 0 L166 1483 Z M-67 1606 L259 1954 L267 1954 L593 1606 L411 1606 L261 1756 L111 1606 L-67 1606 Z " />
<glyph glyph-name="Itilde" unicode="&#x128;" horiz-adv-x="526" d="M166 1483 L360 1483 L360 0 L166 0 L166 1483 Z M-58 1805 Q-31 1843 12.5 1868 Q56 1893 111 1893 Q152 1893 191.5 1880 Q231 1867 277 1844 Q322 1821 352.5 1809 Q383 1797 415 1797 Q442 1797 466 1805.5 Q490 1814 510 1828 Q530 1842 547.5 1859.5 Q565 1877 580 1895 L585 1893 L585 1733 Q557 1695 513.5 1670 Q470 1645 415 1645 Q374 1645 334.5 1658 Q295 1671 249 1694 Q204 1717 174 1729 Q144 1741 111 1741 Q84 1741 60.5 1732.5 Q37 1724 16.5 1710 Q-4 1696 -21.5 1678.5 Q-39 1661 -54 1643 L-58 1645 L-58 1805 Z " />
<glyph glyph-name="Idieresis" unicode="&#xcf;" horiz-adv-x="526" d="M166 1483 L360 1483 L360 0 L166 0 L166 1483 Z M351 1766 Q351 1789 360 1809.5 Q369 1830 384.5 1845.5 Q400 1861 420.5 1870 Q441 1879 464 1879 Q487 1879 507.5 1870 Q528 1861 543 1845.5 Q558 1830 567 1809.5 Q576 1789 576 1766 Q576 1743 567 1722.5 Q558 1702 543 1686.5 Q528 1671 507.5 1662 Q487 1653 464 1653 Q441 1653 420.5 1662 Q400 1671 384.5 1686.5 Q369 1702 360 1722.5 Q351 1743 351 1766 Z M-50 1766 Q-50 1789 -41 1809.5 Q-32 1830 -17 1845.5 Q-2 1861 18.5 1870 Q39 1879 62 1879 Q85 1879 105.5 1870 Q126 1861 141.5 1845.5 Q157 1830 166 1809.5 Q175 1789 175 1766 Q175 1743 166 1722.5 Q157 1702 141.5 1686.5 Q126 1671 105.5 1662 Q85 1653 62 1653 Q39 1653 18.5 1662 Q-2 1671 -17 1686.5 Q-32 1702 -41 1722.5 Q-50 1743 -50 1766 Z " />
<glyph glyph-name="Imacron" unicode="&#x12a;" horiz-adv-x="526" d="M166 1483 L360 1483 L360 0 L166 0 L166 1483 Z M-18 1836 L544 1836 L544 1696 L-18 1696 L-18 1836 Z " />
<glyph glyph-name="Ibreve" unicode="&#x12c;" horiz-adv-x="526" d="M166 1483 L360 1483 L360 0 L166 0 L166 1483 Z M548 1920 Q546 1855 527.5 1799.5 Q509 1744 473.5 1703.5 Q438 1663 385.5 1639.5 Q333 1616 263 1616 Q192 1616 140 1639.5 Q88 1663 52.5 1703.5 Q17 1744 -1 1799.5 Q-19 1855 -22 1920 L97 1920 Q100 1884 110 1849.5 Q120 1815 139.5 1789 Q159 1763 189 1747 Q219 1731 263 1731 Q307 1731 337 1747 Q367 1763 386.5 1789 Q406 1815 416 1849.5 Q426 1884 429 1920 L548 1920 Z " />
<glyph glyph-name="Idotaccent" unicode="&#x130;" horiz-adv-x="526" d="M166 1483 L360 1483 L360 0 L166 0 L166 1483 Z M265 1683 Q241 1683 220.5 1691.5 Q200 1700 185 1715.5 Q170 1731 161 1751.5 Q152 1772 152 1796 Q152 1820 161 1840.5 Q170 1861 185 1876 Q200 1891 220.5 1900 Q241 1909 265 1909 Q289 1909 309.5 1900 Q330 1891 345.5 1876 Q361 1861 369.5 1840.5 Q378 1820 378 1796 Q378 1772 369.5 1751.5 Q361 1731 345.5 1715.5 Q330 1700 309.5 1691.5 Q289 1683 265 1683 Z " />
<glyph glyph-name="Iogonek" unicode="&#x12e;" horiz-adv-x="526" d="M395 -457 Q372 -465 343 -469 Q314 -473 283 -473 Q230 -473 187.5 -457.5 Q145 -442 115 -413.5 Q85 -385 69 -346 Q53 -307 53 -260 Q53 -191 85.5 -123.5 Q118 -56 166 0 L166 1483 L360 1483 L360 0 Q288 -54 248.5 -118.5 Q209 -183 209 -240 Q209 -289 235.5 -316.5 Q262 -344 313 -344 Q330 -344 352.5 -341.5 Q375 -339 395 -334 L395 -457 Z " />
<glyph glyph-name="IJ" unicode="&#x132;" horiz-adv-x="1341" d="M166 1483 L360 1483 L360 0 L166 0 L166 1483 Z M585 205 Q641 182 695.5 170 Q750 158 796 158 Q856 158 892.5 176.5 Q929 195 948.5 229.5 Q968 264 974.5 312.5 Q981 361 981 420 L981 1483 L1175 1483 L1175 430 Q1175 364 1170 313 Q1165 262 1155.5 223 Q1146 184 1131 154 Q1116 124 1097 100 Q1043 34 966.5 5.5 Q890 -23 800 -23 Q732 -23 679.5 -9 Q627 5 585 20 L585 205 Z " />
<glyph glyph-name="Jcircumflex" unicode="&#x134;" horiz-adv-x="815" d="M59 205 Q115 182 169.5 170 Q224 158 270 158 Q330 158 366.5 176.5 Q403 195 422.5 229.5 Q442 264 448.5 312.5 Q455 361 455 420 L455 1483 L649 1483 L649 430 Q649 364 644 313 Q639 262 629.5 223 Q620 184 605 154 Q590 124 571 100 Q517 34 440.5 5.5 Q364 -23 274 -23 Q206 -23 153.5 -9 Q101 5 59 20 L59 205 Z M221 1606 L547 1954 L555 1954 L881 1606 L699 1606 L549 1756 L399 1606 L221 1606 Z " />
<glyph glyph-name="Kcommaaccent" unicode="&#x136;" horiz-adv-x="1284" d="M166 1483 L360 1483 L360 786 L365 784 L1012 1483 L1253 1483 L588 770 L1311 0 L1057 0 L365 741 L360 739 L360 0 L166 0 L166 1483 Z M784 -111 L629 -557 L496 -557 L604 -111 L784 -111 Z " />
<glyph glyph-name="Lacute" unicode="&#x139;" horiz-adv-x="1120" d="M166 1483 L360 1483 L360 176 L1061 176 L1061 0 L166 0 L166 1483 Z M337 1598 L197 1598 L355 1934 L562 1934 L337 1598 Z " />
<glyph glyph-name="Lcaron" unicode="&#x13d;" horiz-adv-x="1120" d="M166 1483 L360 1483 L360 176 L1061 176 L1061 0 L166 0 L166 1483 Z M678 1598 L858 1598 L690 1047 L565 1047 L678 1598 Z " />
<glyph glyph-name="Lcommaaccent" unicode="&#x13b;" horiz-adv-x="1120" d="M166 1483 L360 1483 L360 176 L1061 176 L1061 0 L166 0 L166 1483 Z M743 -111 L588 -557 L455 -557 L563 -111 L743 -111 Z " />
<glyph glyph-name="Lslash" unicode="&#x141;" horiz-adv-x="1126" d="M172 563 L-18 434 L-18 616 L172 745 L172 1483 L367 1483 L367 874 L627 1051 L627 868 L367 692 L367 176 L1067 176 L1067 0 L172 0 L172 563 Z " />
<glyph glyph-name="Ldot" unicode="&#x13f;" horiz-adv-x="1120" d="M166 1483 L360 1483 L360 176 L1061 176 L1061 0 L166 0 L166 1483 Z M700 788 Q700 814 709.5 837 Q719 860 736 877 Q753 894 776 903.5 Q799 913 825 913 Q851 913 874 903.5 Q897 894 914 877 Q931 860 940.5 837 Q950 814 950 788 Q950 762 940.5 739.5 Q931 717 914 700 Q897 683 874 673 Q851 663 825 663 Q799 663 776 673 Q753 683 736 700 Q719 717 709.5 739.5 Q700 762 700 788 Z " />
<glyph glyph-name="Nacute" unicode="&#x143;" horiz-adv-x="1581" d="M610 797 Q533 878 472.5 943.5 Q412 1009 356 1069 L352 1067 Q354 989 354 905.5 Q354 822 354 731 L354 0 L166 0 L166 1532 L172 1534 L971 686 Q1048 605 1108.5 539.5 Q1169 474 1225 414 L1229 416 Q1227 494 1227 577.5 Q1227 661 1227 752 L1227 1483 L1415 1483 L1415 -49 L1411 -51 L610 797 Z M811 1598 L671 1598 L829 1934 L1036 1934 L811 1598 Z " />
<glyph glyph-name="Ncaron" unicode="&#x147;" horiz-adv-x="1581" d="M610 797 Q533 878 472.5 943.5 Q412 1009 356 1069 L352 1067 Q354 989 354 905.5 Q354 822 354 731 L354 0 L166 0 L166 1532 L172 1534 L971 686 Q1048 605 1108.5 539.5 Q1169 474 1225 414 L1229 416 Q1227 494 1227 577.5 Q1227 661 1227 752 L1227 1483 L1415 1483 L1415 -49 L1411 -51 L610 797 Z M1120 1926 L794 1578 L786 1578 L460 1926 L643 1926 L792 1776 L942 1926 L1120 1926 Z " />
<glyph glyph-name="Ntilde" unicode="&#xd1;" horiz-adv-x="1581" d="M610 797 Q533 878 472.5 943.5 Q412 1009 356 1069 L352 1067 Q354 989 354 905.5 Q354 822 354 731 L354 0 L166 0 L166 1532 L172 1534 L971 686 Q1048 605 1108.5 539.5 Q1169 474 1225 414 L1229 416 Q1227 494 1227 577.5 Q1227 661 1227 752 L1227 1483 L1415 1483 L1415 -49 L1411 -51 L610 797 Z M469 1805 Q496 1843 539.5 1868 Q583 1893 638 1893 Q679 1893 718.5 1880 Q758 1867 804 1844 Q849 1821 879.5 1809 Q910 1797 942 1797 Q969 1797 993 1805.5 Q1017 1814 1037 1828 Q1057 1842 1074.5 1859.5 Q1092 1877 1107 1895 L1112 1893 L1112 1733 Q1084 1695 1040.5 1670 Q997 1645 942 1645 Q901 1645 861.5 1658 Q822 1671 776 1694 Q731 1717 701 1729 Q671 1741 638 1741 Q611 1741 587.5 1732.5 Q564 1724 543.5 1710 Q523 1696 505.5 1678.5 Q488 1661 473 1643 L469 1645 L469 1805 Z " />
<glyph glyph-name="Ncommaaccent" unicode="&#x145;" horiz-adv-x="1581" d="M610 797 Q533 878 472.5 943.5 Q412 1009 356 1069 L352 1067 Q354 989 354 905.5 Q354 822 354 731 L354 0 L166 0 L166 1532 L172 1534 L971 686 Q1048 605 1108.5 539.5 Q1169 474 1225 414 L1229 416 Q1227 494 1227 577.5 Q1227 661 1227 752 L1227 1483 L1415 1483 L1415 -49 L1411 -51 L610 797 Z M933 -111 L778 -557 L645 -557 L753 -111 L933 -111 Z " />
<glyph glyph-name="Ograve" unicode="&#xd2;" horiz-adv-x="1671" d="M82 741 Q82 848 108 946.5 Q134 1045 182 1130 Q230 1215 298 1284 Q366 1353 449.5 1402.5 Q533 1452 631 1478.5 Q729 1505 836 1505 Q943 1505 1041 1478.5 Q1139 1452 1222.5 1402.5 Q1306 1353 1373.5 1284 Q1441 1215 1489 1130 Q1537 1045 1563 946.5 Q1589 848 1589 741 Q1589 633 1563 535 Q1537 437 1489.5 352 Q1442 267 1374 198 Q1306 129 1222.5 79.5 Q1139 30 1041 3.5 Q943 -23 836 -23 Q728 -23 630.5 3.5 Q533 30 449.5 79.5 Q366 129 298 198 Q230 267 182 352 Q134 437 108 535 Q82 633 82 741 Z M276 741 Q276 619 318 512.5 Q360 406 434.5 327.5 Q509 249 611.5 203.5 Q714 158 836 158 Q957 158 1059.5 203.5 Q1162 249 1236.5 327.5 Q1311 406 1353 512.5 Q1395 619 1395 741 Q1395 863 1353 969.5 Q1311 1076 1236.5 1155 Q1162 1234 1059.5 1279.5 Q957 1325 836 1325 Q714 1325 611.5 1279.5 Q509 1234 434.5 1155 Q360 1076 318 969.5 Q276 863 276 741 Z M590 1934 L797 1934 L955 1598 L816 1598 L590 1934 Z " />
<glyph glyph-name="Oacute" unicode="&#xd3;" horiz-adv-x="1671" d="M82 741 Q82 848 108 946.5 Q134 1045 182 1130 Q230 1215 298 1284 Q366 1353 449.5 1402.5 Q533 1452 631 1478.5 Q729 1505 836 1505 Q943 1505 1041 1478.5 Q1139 1452 1222.5 1402.5 Q1306 1353 1373.5 1284 Q1441 1215 1489 1130 Q1537 1045 1563 946.5 Q1589 848 1589 741 Q1589 633 1563 535 Q1537 437 1489.5 352 Q1442 267 1374 198 Q1306 129 1222.5 79.5 Q1139 30 1041 3.5 Q943 -23 836 -23 Q728 -23 630.5 3.5 Q533 30 449.5 79.5 Q366 129 298 198 Q230 267 182 352 Q134 437 108 535 Q82 633 82 741 Z M276 741 Q276 619 318 512.5 Q360 406 434.5 327.5 Q509 249 611.5 203.5 Q714 158 836 158 Q957 158 1059.5 203.5 Q1162 249 1236.5 327.5 Q1311 406 1353 512.5 Q1395 619 1395 741 Q1395 863 1353 969.5 Q1311 1076 1236.5 1155 Q1162 1234 1059.5 1279.5 Q957 1325 836 1325 Q714 1325 611.5 1279.5 Q509 1234 434.5 1155 Q360 1076 318 969.5 Q276 863 276 741 Z M857 1598 L717 1598 L875 1934 L1082 1934 L857 1598 Z " />
<glyph glyph-name="Ocircumflex" unicode="&#xd4;" horiz-adv-x="1671" d="M82 741 Q82 848 108 946.5 Q134 1045 182 1130 Q230 1215 298 1284 Q366 1353 449.5 1402.5 Q533 1452 631 1478.5 Q729 1505 836 1505 Q943 1505 1041 1478.5 Q1139 1452 1222.5 1402.5 Q1306 1353 1373.5 1284 Q1441 1215 1489 1130 Q1537 1045 1563 946.5 Q1589 848 1589 741 Q1589 633 1563 535 Q1537 437 1489.5 352 Q1442 267 1374 198 Q1306 129 1222.5 79.5 Q1139 30 1041 3.5 Q943 -23 836 -23 Q728 -23 630.5 3.5 Q533 30 449.5 79.5 Q366 129 298 198 Q230 267 182 352 Q134 437 108 535 Q82 633 82 741 Z M276 741 Q276 619 318 512.5 Q360 406 434.5 327.5 Q509 249 611.5 203.5 Q714 158 836 158 Q957 158 1059.5 203.5 Q1162 249 1236.5 327.5 Q1311 406 1353 512.5 Q1395 619 1395 741 Q1395 863 1353 969.5 Q1311 1076 1236.5 1155 Q1162 1234 1059.5 1279.5 Q957 1325 836 1325 Q714 1325 611.5 1279.5 Q509 1234 434.5 1155 Q360 1076 318 969.5 Q276 863 276 741 Z M506 1606 L832 1954 L840 1954 L1166 1606 L984 1606 L834 1756 L684 1606 L506 1606 Z " />
<glyph glyph-name="Otilde" unicode="&#xd5;" horiz-adv-x="1671" d="M82 741 Q82 848 108 946.5 Q134 1045 182 1130 Q230 1215 298 1284 Q366 1353 449.5 1402.5 Q533 1452 631 1478.5 Q729 1505 836 1505 Q943 1505 1041 1478.5 Q1139 1452 1222.5 1402.5 Q1306 1353 1373.5 1284 Q1441 1215 1489 1130 Q1537 1045 1563 946.5 Q1589 848 1589 741 Q1589 633 1563 535 Q1537 437 1489.5 352 Q1442 267 1374 198 Q1306 129 1222.5 79.5 Q1139 30 1041 3.5 Q943 -23 836 -23 Q728 -23 630.5 3.5 Q533 30 449.5 79.5 Q366 129 298 198 Q230 267 182 352 Q134 437 108 535 Q82 633 82 741 Z M276 741 Q276 619 318 512.5 Q360 406 434.5 327.5 Q509 249 611.5 203.5 Q714 158 836 158 Q957 158 1059.5 203.5 Q1162 249 1236.5 327.5 Q1311 406 1353 512.5 Q1395 619 1395 741 Q1395 863 1353 969.5 Q1311 1076 1236.5 1155 Q1162 1234 1059.5 1279.5 Q957 1325 836 1325 Q714 1325 611.5 1279.5 Q509 1234 434.5 1155 Q360 1076 318 969.5 Q276 863 276 741 Z M515 1805 Q542 1843 585.5 1868 Q629 1893 684 1893 Q725 1893 764.5 1880 Q804 1867 850 1844 Q895 1821 925.5 1809 Q956 1797 988 1797 Q1015 1797 1039 1805.5 Q1063 1814 1083 1828 Q1103 1842 1120.5 1859.5 Q1138 1877 1153 1895 L1158 1893 L1158 1733 Q1130 1695 1086.5 1670 Q1043 1645 988 1645 Q947 1645 907.5 1658 Q868 1671 822 1694 Q777 1717 747 1729 Q717 1741 684 1741 Q657 1741 633.5 1732.5 Q610 1724 589.5 1710 Q569 1696 551.5 1678.5 Q534 1661 519 1643 L515 1645 L515 1805 Z " />
<glyph glyph-name="Odieresis" unicode="&#xd6;" horiz-adv-x="1671" d="M82 741 Q82 848 108 946.5 Q134 1045 182 1130 Q230 1215 298 1284 Q366 1353 449.5 1402.5 Q533 1452 631 1478.5 Q729 1505 836 1505 Q943 1505 1041 1478.5 Q1139 1452 1222.5 1402.5 Q1306 1353 1373.5 1284 Q1441 1215 1489 1130 Q1537 1045 1563 946.5 Q1589 848 1589 741 Q1589 633 1563 535 Q1537 437 1489.5 352 Q1442 267 1374 198 Q1306 129 1222.5 79.5 Q1139 30 1041 3.5 Q943 -23 836 -23 Q728 -23 630.5 3.5 Q533 30 449.5 79.5 Q366 129 298 198 Q230 267 182 352 Q134 437 108 535 Q82 633 82 741 Z M276 741 Q276 619 318 512.5 Q360 406 434.5 327.5 Q509 249 611.5 203.5 Q714 158 836 158 Q957 158 1059.5 203.5 Q1162 249 1236.5 327.5 Q1311 406 1353 512.5 Q1395 619 1395 741 Q1395 863 1353 969.5 Q1311 1076 1236.5 1155 Q1162 1234 1059.5 1279.5 Q957 1325 836 1325 Q714 1325 611.5 1279.5 Q509 1234 434.5 1155 Q360 1076 318 969.5 Q276 863 276 741 Z M924 1766 Q924 1789 933 1809.5 Q942 1830 957.5 1845.5 Q973 1861 993.5 1870 Q1014 1879 1037 1879 Q1060 1879 1080.5 1870 Q1101 1861 1116 1845.5 Q1131 1830 1140 1809.5 Q1149 1789 1149 1766 Q1149 1743 1140 1722.5 Q1131 1702 1116 1686.5 Q1101 1671 1080.5 1662 Q1060 1653 1037 1653 Q1014 1653 993.5 1662 Q973 1671 957.5 1686.5 Q942 1702 933 1722.5 Q924 1743 924 1766 Z M523 1766 Q523 1789 532 1809.5 Q541 1830 556 1845.5 Q571 1861 591.5 1870 Q612 1879 635 1879 Q658 1879 678.5 1870 Q699 1861 714.5 1845.5 Q730 1830 739 1809.5 Q748 1789 748 1766 Q748 1743 739 1722.5 Q730 1702 714.5 1686.5 Q699 1671 678.5 1662 Q658 1653 635 1653 Q612 1653 591.5 1662 Q571 1671 556 1686.5 Q541 1702 532 1722.5 Q523 1743 523 1766 Z " />
<glyph glyph-name="Omacron" unicode="&#x14c;" horiz-adv-x="1671" d="M82 741 Q82 848 108 946.5 Q134 1045 182 1130 Q230 1215 298 1284 Q366 1353 449.5 1402.5 Q533 1452 631 1478.5 Q729 1505 836 1505 Q943 1505 1041 1478.5 Q1139 1452 1222.5 1402.5 Q1306 1353 1373.5 1284 Q1441 1215 1489 1130 Q1537 1045 1563 946.5 Q1589 848 1589 741 Q1589 633 1563 535 Q1537 437 1489.5 352 Q1442 267 1374 198 Q1306 129 1222.5 79.5 Q1139 30 1041 3.5 Q943 -23 836 -23 Q728 -23 630.5 3.5 Q533 30 449.5 79.5 Q366 129 298 198 Q230 267 182 352 Q134 437 108 535 Q82 633 82 741 Z M276 741 Q276 619 318 512.5 Q360 406 434.5 327.5 Q509 249 611.5 203.5 Q714 158 836 158 Q957 158 1059.5 203.5 Q1162 249 1236.5 327.5 Q1311 406 1353 512.5 Q1395 619 1395 741 Q1395 863 1353 969.5 Q1311 1076 1236.5 1155 Q1162 1234 1059.5 1279.5 Q957 1325 836 1325 Q714 1325 611.5 1279.5 Q509 1234 434.5 1155 Q360 1076 318 969.5 Q276 863 276 741 Z M555 1836 L1117 1836 L1117 1696 L555 1696 L555 1836 Z " />
<glyph glyph-name="Obreve" unicode="&#x14e;" horiz-adv-x="1671" d="M82 741 Q82 848 108 946.5 Q134 1045 182 1130 Q230 1215 298 1284 Q366 1353 449.5 1402.5 Q533 1452 631 1478.5 Q729 1505 836 1505 Q943 1505 1041 1478.5 Q1139 1452 1222.5 1402.5 Q1306 1353 1373.5 1284 Q1441 1215 1489 1130 Q1537 1045 1563 946.5 Q1589 848 1589 741 Q1589 633 1563 535 Q1537 437 1489.5 352 Q1442 267 1374 198 Q1306 129 1222.5 79.5 Q1139 30 1041 3.5 Q943 -23 836 -23 Q728 -23 630.5 3.5 Q533 30 449.5 79.5 Q366 129 298 198 Q230 267 182 352 Q134 437 108 535 Q82 633 82 741 Z M276 741 Q276 619 318 512.5 Q360 406 434.5 327.5 Q509 249 611.5 203.5 Q714 158 836 158 Q957 158 1059.5 203.5 Q1162 249 1236.5 327.5 Q1311 406 1353 512.5 Q1395 619 1395 741 Q1395 863 1353 969.5 Q1311 1076 1236.5 1155 Q1162 1234 1059.5 1279.5 Q957 1325 836 1325 Q714 1325 611.5 1279.5 Q509 1234 434.5 1155 Q360 1076 318 969.5 Q276 863 276 741 Z M1121 1920 Q1119 1855 1100.5 1799.5 Q1082 1744 1046.5 1703.5 Q1011 1663 958.5 1639.5 Q906 1616 836 1616 Q765 1616 713 1639.5 Q661 1663 625.5 1703.5 Q590 1744 572 1799.5 Q554 1855 551 1920 L670 1920 Q673 1884 683 1849.5 Q693 1815 712.5 1789 Q732 1763 762 1747 Q792 1731 836 1731 Q880 1731 910 1747 Q940 1763 959.5 1789 Q979 1815 989 1849.5 Q999 1884 1002 1920 L1121 1920 Z " />
<glyph glyph-name="Ohungarumlaut" unicode="&#x150;" horiz-adv-x="1671" d="M82 741 Q82 848 108 946.5 Q134 1045 182 1130 Q230 1215 298 1284 Q366 1353 449.5 1402.5 Q533 1452 631 1478.5 Q729 1505 836 1505 Q943 1505 1041 1478.5 Q1139 1452 1222.5 1402.5 Q1306 1353 1373.5 1284 Q1441 1215 1489 1130 Q1537 1045 1563 946.5 Q1589 848 1589 741 Q1589 633 1563 535 Q1537 437 1489.5 352 Q1442 267 1374 198 Q1306 129 1222.5 79.5 Q1139 30 1041 3.5 Q943 -23 836 -23 Q728 -23 630.5 3.5 Q533 30 449.5 79.5 Q366 129 298 198 Q230 267 182 352 Q134 437 108 535 Q82 633 82 741 Z M276 741 Q276 619 318 512.5 Q360 406 434.5 327.5 Q509 249 611.5 203.5 Q714 158 836 158 Q957 158 1059.5 203.5 Q1162 249 1236.5 327.5 Q1311 406 1353 512.5 Q1395 619 1395 741 Q1395 863 1353 969.5 Q1311 1076 1236.5 1155 Q1162 1234 1059.5 1279.5 Q957 1325 836 1325 Q714 1325 611.5 1279.5 Q509 1234 434.5 1155 Q360 1076 318 969.5 Q276 863 276 741 Z M1031 1934 L1192 1934 L981 1598 L861 1598 L1031 1934 Z M748 1934 L910 1934 L699 1598 L578 1598 L748 1934 Z " />
<glyph glyph-name="Oslash" unicode="&#xd8;" horiz-adv-x="1671" d="M1155 1225 Q1089 1273 1008 1299 Q927 1325 836 1325 Q714 1325 611.5 1279.5 Q509 1234 434.5 1155 Q360 1076 318 969.5 Q276 863 276 741 Q276 627 311.5 528.5 Q347 430 412 352 L1155 1225 Z M289 207 Q192 310 137 446 Q82 582 82 741 Q82 848 108 946.5 Q134 1045 182 1130 Q230 1215 298 1284 Q366 1353 449.5 1402.5 Q533 1452 631 1478.5 Q729 1505 836 1505 Q963 1505 1074.5 1468.5 Q1186 1432 1276 1366 L1403 1516 L1509 1425 L1382 1276 Q1479 1173 1534 1036.5 Q1589 900 1589 741 Q1589 633 1563 535 Q1537 437 1489.5 352 Q1442 267 1374 198 Q1306 129 1222.5 79.5 Q1139 30 1041 3.5 Q943 -23 836 -23 Q709 -23 597 14 Q485 51 395 117 L268 -33 L162 57 L289 207 Z M516 258 Q582 210 663.5 184 Q745 158 836 158 Q957 158 1059.5 203.5 Q1162 249 1236.5 327.5 Q1311 406 1353 512.5 Q1395 619 1395 741 Q1395 856 1360 954.5 Q1325 1053 1260 1130 L516 258 Z " />
<glyph glyph-name="Oslashacute" unicode="&#x1fe;" horiz-adv-x="1671" d="M1155 1225 Q1089 1273 1008 1299 Q927 1325 836 1325 Q714 1325 611.5 1279.5 Q509 1234 434.5 1155 Q360 1076 318 969.5 Q276 863 276 741 Q276 627 311.5 528.5 Q347 430 412 352 L1155 1225 Z M289 207 Q192 310 137 446 Q82 582 82 741 Q82 848 108 946.5 Q134 1045 182 1130 Q230 1215 298 1284 Q366 1353 449.5 1402.5 Q533 1452 631 1478.5 Q729 1505 836 1505 Q963 1505 1074.5 1468.5 Q1186 1432 1276 1366 L1403 1516 L1509 1425 L1382 1276 Q1479 1173 1534 1036.5 Q1589 900 1589 741 Q1589 633 1563 535 Q1537 437 1489.5 352 Q1442 267 1374 198 Q1306 129 1222.5 79.5 Q1139 30 1041 3.5 Q943 -23 836 -23 Q709 -23 597 14 Q485 51 395 117 L268 -33 L162 57 L289 207 Z M516 258 Q582 210 663.5 184 Q745 158 836 158 Q957 158 1059.5 203.5 Q1162 249 1236.5 327.5 Q1311 406 1353 512.5 Q1395 619 1395 741 Q1395 856 1360 954.5 Q1325 1053 1260 1130 L516 258 Z M857 1598 L717 1598 L875 1934 L1082 1934 L857 1598 Z " />
<glyph glyph-name="OE" unicode="&#x152;" horiz-adv-x="1903" d="M965 1307 Q890 1306 827 1301 Q764 1296 710 1285 Q656 1274 608.5 1254.5 Q561 1235 516 1206 Q402 1132 339 1013 Q276 894 276 741 Q276 663 293 594.5 Q310 526 341.5 468 Q373 410 417.5 362.5 Q462 315 516 279 Q561 250 607.5 230.5 Q654 211 707.5 199 Q761 187 824 182 Q887 177 965 176 L965 1307 Z M1815 176 L1815 0 L940 0 Q782 0 654.5 27 Q527 54 414 123 Q253 222 167.5 379.5 Q82 537 82 739 Q82 928 156.5 1079.5 Q231 1231 375 1333 Q436 1376 502 1405 Q568 1434 640 1451 Q712 1468 789 1475.5 Q866 1483 948 1483 L1796 1483 L1796 1307 L1159 1307 L1159 848 L1714 848 L1714 678 L1159 678 L1159 176 L1815 176 Z " />
<glyph glyph-name="Racute" unicode="&#x154;" horiz-adv-x="1296" d="M592 788 Q691 788 761.5 803 Q832 818 883 858 Q925 889 948 935 Q971 981 971 1044 Q971 1116 940 1170.5 Q909 1225 850 1257 Q820 1274 787 1284 Q754 1294 715 1299 Q676 1304 631 1305.5 Q586 1307 532 1307 L360 1307 L360 788 L592 788 Z M1030 0 L616 623 L360 623 L360 0 L166 0 L166 1483 L547 1483 Q603 1483 657.5 1481 Q712 1479 764.5 1471.5 Q817 1464 866.5 1449 Q916 1434 961 1409 Q1007 1383 1044.5 1348 Q1082 1313 1109 1269.5 Q1136 1226 1150.5 1173 Q1165 1120 1165 1057 Q1165 980 1142 912 Q1119 844 1075 790 Q1031 736 968 698.5 Q905 661 825 645 L1266 0 L1030 0 Z M627 1598 L487 1598 L645 1934 L852 1934 L627 1598 Z " />
<glyph glyph-name="Rcaron" unicode="&#x158;" horiz-adv-x="1296" d="M592 788 Q691 788 761.5 803 Q832 818 883 858 Q925 889 948 935 Q971 981 971 1044 Q971 1116 940 1170.5 Q909 1225 850 1257 Q820 1274 787 1284 Q754 1294 715 1299 Q676 1304 631 1305.5 Q586 1307 532 1307 L360 1307 L360 788 L592 788 Z M1030 0 L616 623 L360 623 L360 0 L166 0 L166 1483 L547 1483 Q603 1483 657.5 1481 Q712 1479 764.5 1471.5 Q817 1464 866.5 1449 Q916 1434 961 1409 Q1007 1383 1044.5 1348 Q1082 1313 1109 1269.5 Q1136 1226 1150.5 1173 Q1165 1120 1165 1057 Q1165 980 1142 912 Q1119 844 1075 790 Q1031 736 968 698.5 Q905 661 825 645 L1266 0 L1030 0 Z M936 1926 L610 1578 L602 1578 L276 1926 L459 1926 L608 1776 L758 1926 L936 1926 Z " />
<glyph glyph-name="Rcommaaccent" unicode="&#x156;" horiz-adv-x="1296" d="M592 788 Q691 788 761.5 803 Q832 818 883 858 Q925 889 948 935 Q971 981 971 1044 Q971 1116 940 1170.5 Q909 1225 850 1257 Q820 1274 787 1284 Q754 1294 715 1299 Q676 1304 631 1305.5 Q586 1307 532 1307 L360 1307 L360 788 L592 788 Z M1030 0 L616 623 L360 623 L360 0 L166 0 L166 1483 L547 1483 Q603 1483 657.5 1481 Q712 1479 764.5 1471.5 Q817 1464 866.5 1449 Q916 1434 961 1409 Q1007 1383 1044.5 1348 Q1082 1313 1109 1269.5 Q1136 1226 1150.5 1173 Q1165 1120 1165 1057 Q1165 980 1142 912 Q1119 844 1075 790 Q1031 736 968 698.5 Q905 661 825 645 L1266 0 L1030 0 Z M749 -111 L594 -557 L461 -557 L569 -111 L749 -111 Z " />
<glyph glyph-name="Sacute" unicode="&#x15a;" horiz-adv-x="1133" d="M119 317 Q172 275 229.5 244.5 Q287 214 344.5 194.5 Q402 175 457.5 165.5 Q513 156 561 156 Q627 156 681 172.5 Q735 189 773.5 220.5 Q812 252 833 297.5 Q854 343 854 401 Q854 469 827 513 Q800 557 753 587 Q706 617 643 637 Q580 657 508 678 Q431 700 357.5 729.5 Q284 759 226 806 Q168 853 133 922 Q98 991 98 1092 Q98 1185 130.5 1261.5 Q163 1338 224 1392 Q285 1446 370.5 1475.5 Q456 1505 563 1505 Q618 1505 673.5 1497 Q729 1489 782.5 1474 Q836 1459 885.5 1436.5 Q935 1414 977 1386 L977 1182 Q926 1219 872 1246 Q818 1273 764.5 1291 Q711 1309 659 1318 Q607 1327 561 1327 Q500 1327 450.5 1312 Q401 1297 366 1268.5 Q331 1240 312 1198.5 Q293 1157 293 1104 Q293 1041 320 999.5 Q347 958 393.5 929 Q440 900 502 880 Q564 860 633 840 Q717 815 792.5 782.5 Q868 750 925 701 Q982 652 1015.5 582 Q1049 512 1049 412 Q1049 311 1013.5 230.5 Q978 150 914 93.5 Q850 37 760.5 7 Q671 -23 563 -23 Q506 -23 446 -13.5 Q386 -4 328 12.5 Q270 29 217 52.5 Q164 76 119 104 L119 317 Z M586 1598 L446 1598 L604 1934 L811 1934 L586 1598 Z " />
<glyph glyph-name="Scircumflex" unicode="&#x15c;" horiz-adv-x="1133" d="M119 317 Q172 275 229.5 244.5 Q287 214 344.5 194.5 Q402 175 457.5 165.5 Q513 156 561 156 Q627 156 681 172.5 Q735 189 773.5 220.5 Q812 252 833 297.5 Q854 343 854 401 Q854 469 827 513 Q800 557 753 587 Q706 617 643 637 Q580 657 508 678 Q431 700 357.5 729.5 Q284 759 226 806 Q168 853 133 922 Q98 991 98 1092 Q98 1185 130.5 1261.5 Q163 1338 224 1392 Q285 1446 370.5 1475.5 Q456 1505 563 1505 Q618 1505 673.5 1497 Q729 1489 782.5 1474 Q836 1459 885.5 1436.5 Q935 1414 977 1386 L977 1182 Q926 1219 872 1246 Q818 1273 764.5 1291 Q711 1309 659 1318 Q607 1327 561 1327 Q500 1327 450.5 1312 Q401 1297 366 1268.5 Q331 1240 312 1198.5 Q293 1157 293 1104 Q293 1041 320 999.5 Q347 958 393.5 929 Q440 900 502 880 Q564 860 633 840 Q717 815 792.5 782.5 Q868 750 925 701 Q982 652 1015.5 582 Q1049 512 1049 412 Q1049 311 1013.5 230.5 Q978 150 914 93.5 Q850 37 760.5 7 Q671 -23 563 -23 Q506 -23 446 -13.5 Q386 -4 328 12.5 Q270 29 217 52.5 Q164 76 119 104 L119 317 Z M235 1606 L561 1954 L569 1954 L895 1606 L713 1606 L563 1756 L413 1606 L235 1606 Z " />
<glyph glyph-name="Scaron" unicode="&#x160;" horiz-adv-x="1133" d="M119 317 Q172 275 229.5 244.5 Q287 214 344.5 194.5 Q402 175 457.5 165.5 Q513 156 561 156 Q627 156 681 172.5 Q735 189 773.5 220.5 Q812 252 833 297.5 Q854 343 854 401 Q854 469 827 513 Q800 557 753 587 Q706 617 643 637 Q580 657 508 678 Q431 700 357.5 729.5 Q284 759 226 806 Q168 853 133 922 Q98 991 98 1092 Q98 1185 130.5 1261.5 Q163 1338 224 1392 Q285 1446 370.5 1475.5 Q456 1505 563 1505 Q618 1505 673.5 1497 Q729 1489 782.5 1474 Q836 1459 885.5 1436.5 Q935 1414 977 1386 L977 1182 Q926 1219 872 1246 Q818 1273 764.5 1291 Q711 1309 659 1318 Q607 1327 561 1327 Q500 1327 450.5 1312 Q401 1297 366 1268.5 Q331 1240 312 1198.5 Q293 1157 293 1104 Q293 1041 320 999.5 Q347 958 393.5 929 Q440 900 502 880 Q564 860 633 840 Q717 815 792.5 782.5 Q868 750 925 701 Q982 652 1015.5 582 Q1049 512 1049 412 Q1049 311 1013.5 230.5 Q978 150 914 93.5 Q850 37 760.5 7 Q671 -23 563 -23 Q506 -23 446 -13.5 Q386 -4 328 12.5 Q270 29 217 52.5 Q164 76 119 104 L119 317 Z M895 1926 L569 1578 L561 1578 L235 1926 L418 1926 L567 1776 L717 1926 L895 1926 Z " />
<glyph glyph-name="Scedilla" unicode="&#x15e;" horiz-adv-x="1133" d="M119 317 Q172 275 229.5 244.5 Q287 214 344.5 194.5 Q402 175 457.5 165.5 Q513 156 561 156 Q627 156 681 172.5 Q735 189 773.5 220.5 Q812 252 833 297.5 Q854 343 854 401 Q854 469 827 513 Q800 557 753 587 Q706 617 643 637 Q580 657 508 678 Q431 700 357.5 729.5 Q284 759 226 806 Q168 853 133 922 Q98 991 98 1092 Q98 1185 130.5 1261.5 Q163 1338 224 1392 Q285 1446 370.5 1475.5 Q456 1505 563 1505 Q618 1505 673.5 1497 Q729 1489 782.5 1474 Q836 1459 885.5 1436.5 Q935 1414 977 1386 L977 1182 Q926 1219 872 1246 Q818 1273 764.5 1291 Q711 1309 659 1318 Q607 1327 561 1327 Q500 1327 450.5 1312 Q401 1297 366 1268.5 Q331 1240 312 1198.5 Q293 1157 293 1104 Q293 1041 320 999.5 Q347 958 393.5 929 Q440 900 502 880 Q564 860 633 840 Q717 815 792.5 782.5 Q868 750 925 701 Q982 652 1015.5 582 Q1049 512 1049 412 Q1049 317 1017.5 240.5 Q986 164 928.5 108.5 Q871 53 790.5 20 Q710 -13 612 -20 L592 -88 Q675 -107 724.5 -151 Q774 -195 774 -272 Q774 -313 759 -346.5 Q744 -380 716 -403.5 Q688 -427 648 -440 Q608 -453 559 -453 Q511 -453 468.5 -442 Q426 -431 395 -416 L426 -311 Q460 -328 493 -339 Q526 -350 557 -350 Q597 -350 626 -332 Q655 -314 655 -279 Q655 -250 636 -230.5 Q617 -211 588.5 -199.5 Q560 -188 527.5 -183 Q495 -178 467 -176 L514 -20 Q462 -17 408.5 -6.5 Q355 4 304 20 Q253 36 206 57.5 Q159 79 119 104 L119 317 Z " />
<glyph glyph-name="Scommaaccent" unicode="&#x218;" horiz-adv-x="1133" d="M119 317 Q172 275 229.5 244.5 Q287 214 344.5 194.5 Q402 175 457.5 165.5 Q513 156 561 156 Q627 156 681 172.5 Q735 189 773.5 220.5 Q812 252 833 297.5 Q854 343 854 401 Q854 469 827 513 Q800 557 753 587 Q706 617 643 637 Q580 657 508 678 Q431 700 357.5 729.5 Q284 759 226 806 Q168 853 133 922 Q98 991 98 1092 Q98 1185 130.5 1261.5 Q163 1338 224 1392 Q285 1446 370.5 1475.5 Q456 1505 563 1505 Q618 1505 673.5 1497 Q729 1489 782.5 1474 Q836 1459 885.5 1436.5 Q935 1414 977 1386 L977 1182 Q926 1219 872 1246 Q818 1273 764.5 1291 Q711 1309 659 1318 Q607 1327 561 1327 Q500 1327 450.5 1312 Q401 1297 366 1268.5 Q331 1240 312 1198.5 Q293 1157 293 1104 Q293 1041 320 999.5 Q347 958 393.5 929 Q440 900 502 880 Q564 860 633 840 Q717 815 792.5 782.5 Q868 750 925 701 Q982 652 1015.5 582 Q1049 512 1049 412 Q1049 311 1013.5 230.5 Q978 150 914 93.5 Q850 37 760.5 7 Q671 -23 563 -23 Q506 -23 446 -13.5 Q386 -4 328 12.5 Q270 29 217 52.5 Q164 76 119 104 L119 317 Z M708 -111 L553 -557 L420 -557 L528 -111 L708 -111 Z " />
<glyph glyph-name="Tcaron" unicode="&#x164;" horiz-adv-x="1272" d="M539 1307 L41 1307 L41 1483 L1231 1483 L1231 1307 L733 1307 L733 0 L539 0 L539 1307 Z M965 1926 L639 1578 L631 1578 L305 1926 L488 1926 L637 1776 L787 1926 L965 1926 Z " />
<glyph glyph-name="Tcommaaccent" unicode="&#x162;" horiz-adv-x="1272" d="M539 1307 L41 1307 L41 1483 L1231 1483 L1231 1307 L733 1307 L733 0 L682 0 L655 -88 Q697 -97 730.5 -113 Q764 -129 788 -151.5 Q812 -174 825 -204 Q838 -234 838 -272 Q838 -313 823 -346.5 Q808 -380 780 -403.5 Q752 -427 712 -440 Q672 -453 623 -453 Q575 -453 532.5 -442 Q490 -431 459 -416 L489 -311 Q524 -328 557 -339 Q590 -350 621 -350 Q661 -350 690 -332 Q719 -314 719 -279 Q719 -250 700 -230.5 Q681 -211 652.5 -199.5 Q624 -188 591 -183 Q558 -178 530 -176 L584 0 L539 0 L539 1307 Z " />
<glyph glyph-name="uni021A" unicode="&#x21a;" horiz-adv-x="1272" d="M539 1307 L41 1307 L41 1483 L1231 1483 L1231 1307 L733 1307 L733 0 L539 0 L539 1307 Z M778 -111 L623 -557 L490 -557 L598 -111 L778 -111 Z " />
<glyph glyph-name="Tbar" unicode="&#x166;" horiz-adv-x="1272" d="M270 811 L539 811 L539 1307 L41 1307 L41 1483 L1231 1483 L1231 1307 L733 1307 L733 811 L1001 811 L1001 651 L733 651 L733 0 L539 0 L539 651 L270 651 L270 811 Z " />
<glyph glyph-name="Ugrave" unicode="&#xd9;" horiz-adv-x="1495" d="M1346 721 Q1346 640 1342.5 568.5 Q1339 497 1328.5 433.5 Q1318 370 1298.5 314 Q1279 258 1247 209 Q1176 101 1047.5 39 Q919 -23 745 -23 Q658 -23 582.5 -6.5 Q507 10 444 40 Q381 70 331.5 113 Q282 156 248 209 Q216 259 196.5 315.5 Q177 372 166.5 434 Q156 496 153 562.5 Q150 629 150 698 L150 1483 L344 1483 L344 719 Q344 651 346.5 594.5 Q349 538 355.5 491.5 Q362 445 373 406.5 Q384 368 401 336 Q420 300 450.5 267.5 Q481 235 524 211 Q567 187 624 172.5 Q681 158 754 158 Q889 158 973.5 206 Q1058 254 1102 336 Q1137 402 1147 493.5 Q1157 585 1157 711 L1157 1483 L1346 1483 L1346 721 Z M506 1934 L713 1934 L871 1598 L732 1598 L506 1934 Z " />
<glyph glyph-name="Uacute" unicode="&#xda;" horiz-adv-x="1495" d="M1346 721 Q1346 640 1342.5 568.5 Q1339 497 1328.5 433.5 Q1318 370 1298.5 314 Q1279 258 1247 209 Q1176 101 1047.5 39 Q919 -23 745 -23 Q658 -23 582.5 -6.5 Q507 10 444 40 Q381 70 331.5 113 Q282 156 248 209 Q216 259 196.5 315.5 Q177 372 166.5 434 Q156 496 153 562.5 Q150 629 150 698 L150 1483 L344 1483 L344 719 Q344 651 346.5 594.5 Q349 538 355.5 491.5 Q362 445 373 406.5 Q384 368 401 336 Q420 300 450.5 267.5 Q481 235 524 211 Q567 187 624 172.5 Q681 158 754 158 Q889 158 973.5 206 Q1058 254 1102 336 Q1137 402 1147 493.5 Q1157 585 1157 711 L1157 1483 L1346 1483 L1346 721 Z M773 1598 L633 1598 L791 1934 L998 1934 L773 1598 Z " />
<glyph glyph-name="Ucircumflex" unicode="&#xdb;" horiz-adv-x="1495" d="M1346 721 Q1346 640 1342.5 568.5 Q1339 497 1328.5 433.5 Q1318 370 1298.5 314 Q1279 258 1247 209 Q1176 101 1047.5 39 Q919 -23 745 -23 Q658 -23 582.5 -6.5 Q507 10 444 40 Q381 70 331.5 113 Q282 156 248 209 Q216 259 196.5 315.5 Q177 372 166.5 434 Q156 496 153 562.5 Q150 629 150 698 L150 1483 L344 1483 L344 719 Q344 651 346.5 594.5 Q349 538 355.5 491.5 Q362 445 373 406.5 Q384 368 401 336 Q420 300 450.5 267.5 Q481 235 524 211 Q567 187 624 172.5 Q681 158 754 158 Q889 158 973.5 206 Q1058 254 1102 336 Q1137 402 1147 493.5 Q1157 585 1157 711 L1157 1483 L1346 1483 L1346 721 Z M422 1606 L748 1954 L756 1954 L1082 1606 L900 1606 L750 1756 L600 1606 L422 1606 Z " />
<glyph glyph-name="Utilde" unicode="&#x168;" horiz-adv-x="1495" d="M1346 721 Q1346 640 1342.5 568.5 Q1339 497 1328.5 433.5 Q1318 370 1298.5 314 Q1279 258 1247 209 Q1176 101 1047.5 39 Q919 -23 745 -23 Q658 -23 582.5 -6.5 Q507 10 444 40 Q381 70 331.5 113 Q282 156 248 209 Q216 259 196.5 315.5 Q177 372 166.5 434 Q156 496 153 562.5 Q150 629 150 698 L150 1483 L344 1483 L344 719 Q344 651 346.5 594.5 Q349 538 355.5 491.5 Q362 445 373 406.5 Q384 368 401 336 Q420 300 450.5 267.5 Q481 235 524 211 Q567 187 624 172.5 Q681 158 754 158 Q889 158 973.5 206 Q1058 254 1102 336 Q1137 402 1147 493.5 Q1157 585 1157 711 L1157 1483 L1346 1483 L1346 721 Z M431 1805 Q458 1843 501.5 1868 Q545 1893 600 1893 Q641 1893 680.5 1880 Q720 1867 766 1844 Q811 1821 841.5 1809 Q872 1797 904 1797 Q931 1797 955 1805.5 Q979 1814 999 1828 Q1019 1842 1036.5 1859.5 Q1054 1877 1069 1895 L1074 1893 L1074 1733 Q1046 1695 1002.5 1670 Q959 1645 904 1645 Q863 1645 823.5 1658 Q784 1671 738 1694 Q693 1717 663 1729 Q633 1741 600 1741 Q573 1741 549.5 1732.5 Q526 1724 505.5 1710 Q485 1696 467.5 1678.5 Q450 1661 435 1643 L431 1645 L431 1805 Z " />
<glyph glyph-name="Udieresis" unicode="&#xdc;" horiz-adv-x="1495" d="M1346 721 Q1346 640 1342.5 568.5 Q1339 497 1328.5 433.5 Q1318 370 1298.5 314 Q1279 258 1247 209 Q1176 101 1047.5 39 Q919 -23 745 -23 Q658 -23 582.5 -6.5 Q507 10 444 40 Q381 70 331.5 113 Q282 156 248 209 Q216 259 196.5 315.5 Q177 372 166.5 434 Q156 496 153 562.5 Q150 629 150 698 L150 1483 L344 1483 L344 719 Q344 651 346.5 594.5 Q349 538 355.5 491.5 Q362 445 373 406.5 Q384 368 401 336 Q420 300 450.5 267.5 Q481 235 524 211 Q567 187 624 172.5 Q681 158 754 158 Q889 158 973.5 206 Q1058 254 1102 336 Q1137 402 1147 493.5 Q1157 585 1157 711 L1157 1483 L1346 1483 L1346 721 Z M840 1766 Q840 1789 849 1809.5 Q858 1830 873.5 1845.5 Q889 1861 909.5 1870 Q930 1879 953 1879 Q976 1879 996.5 1870 Q1017 1861 1032 1845.5 Q1047 1830 1056 1809.5 Q1065 1789 1065 1766 Q1065 1743 1056 1722.5 Q1047 1702 1032 1686.5 Q1017 1671 996.5 1662 Q976 1653 953 1653 Q930 1653 909.5 1662 Q889 1671 873.5 1686.5 Q858 1702 849 1722.5 Q840 1743 840 1766 Z M439 1766 Q439 1789 448 1809.5 Q457 1830 472 1845.5 Q487 1861 507.5 1870 Q528 1879 551 1879 Q574 1879 594.5 1870 Q615 1861 630.5 1845.5 Q646 1830 655 1809.5 Q664 1789 664 1766 Q664 1743 655 1722.5 Q646 1702 630.5 1686.5 Q615 1671 594.5 1662 Q574 1653 551 1653 Q528 1653 507.5 1662 Q487 1671 472 1686.5 Q457 1702 448 1722.5 Q439 1743 439 1766 Z " />
<glyph glyph-name="Umacron" unicode="&#x16a;" horiz-adv-x="1495" d="M1346 721 Q1346 640 1342.5 568.5 Q1339 497 1328.5 433.5 Q1318 370 1298.5 314 Q1279 258 1247 209 Q1176 101 1047.5 39 Q919 -23 745 -23 Q658 -23 582.5 -6.5 Q507 10 444 40 Q381 70 331.5 113 Q282 156 248 209 Q216 259 196.5 315.5 Q177 372 166.5 434 Q156 496 153 562.5 Q150 629 150 698 L150 1483 L344 1483 L344 719 Q344 651 346.5 594.5 Q349 538 355.5 491.5 Q362 445 373 406.5 Q384 368 401 336 Q420 300 450.5 267.5 Q481 235 524 211 Q567 187 624 172.5 Q681 158 754 158 Q889 158 973.5 206 Q1058 254 1102 336 Q1137 402 1147 493.5 Q1157 585 1157 711 L1157 1483 L1346 1483 L1346 721 Z M471 1836 L1033 1836 L1033 1696 L471 1696 L471 1836 Z " />
<glyph glyph-name="Ubreve" unicode="&#x16c;" horiz-adv-x="1495" d="M1346 721 Q1346 640 1342.5 568.5 Q1339 497 1328.5 433.5 Q1318 370 1298.5 314 Q1279 258 1247 209 Q1176 101 1047.5 39 Q919 -23 745 -23 Q658 -23 582.5 -6.5 Q507 10 444 40 Q381 70 331.5 113 Q282 156 248 209 Q216 259 196.5 315.5 Q177 372 166.5 434 Q156 496 153 562.5 Q150 629 150 698 L150 1483 L344 1483 L344 719 Q344 651 346.5 594.5 Q349 538 355.5 491.5 Q362 445 373 406.5 Q384 368 401 336 Q420 300 450.5 267.5 Q481 235 524 211 Q567 187 624 172.5 Q681 158 754 158 Q889 158 973.5 206 Q1058 254 1102 336 Q1137 402 1147 493.5 Q1157 585 1157 711 L1157 1483 L1346 1483 L1346 721 Z M1037 1920 Q1035 1855 1016.5 1799.5 Q998 1744 962.5 1703.5 Q927 1663 874.5 1639.5 Q822 1616 752 1616 Q681 1616 629 1639.5 Q577 1663 541.5 1703.5 Q506 1744 488 1799.5 Q470 1855 467 1920 L586 1920 Q589 1884 599 1849.5 Q609 1815 628.5 1789 Q648 1763 678 1747 Q708 1731 752 1731 Q796 1731 826 1747 Q856 1763 875.5 1789 Q895 1815 905 1849.5 Q915 1884 918 1920 L1037 1920 Z " />
<glyph glyph-name="Uring" unicode="&#x16e;" horiz-adv-x="1495" d="M1346 721 Q1346 640 1342.5 568.5 Q1339 497 1328.5 433.5 Q1318 370 1298.5 314 Q1279 258 1247 209 Q1176 101 1047.5 39 Q919 -23 745 -23 Q658 -23 582.5 -6.5 Q507 10 444 40 Q381 70 331.5 113 Q282 156 248 209 Q216 259 196.5 315.5 Q177 372 166.5 434 Q156 496 153 562.5 Q150 629 150 698 L150 1483 L344 1483 L344 719 Q344 651 346.5 594.5 Q349 538 355.5 491.5 Q362 445 373 406.5 Q384 368 401 336 Q420 300 450.5 267.5 Q481 235 524 211 Q567 187 624 172.5 Q681 158 754 158 Q889 158 973.5 206 Q1058 254 1102 336 Q1137 402 1147 493.5 Q1157 585 1157 711 L1157 1483 L1346 1483 L1346 721 Z M752 1573 Q701 1573 657.5 1591 Q614 1609 581.5 1640.5 Q549 1672 530.5 1714.5 Q512 1757 512 1807 Q512 1857 530.5 1899.5 Q549 1942 581.5 1973.5 Q614 2005 657.5 2022.5 Q701 2040 752 2040 Q803 2040 846.5 2022.5 Q890 2005 922.5 1973.5 Q955 1942 973.5 1899.5 Q992 1857 992 1807 Q992 1757 973.5 1714.5 Q955 1672 922.5 1640.5 Q890 1609 846.5 1591 Q803 1573 752 1573 Z M752 1676 Q782 1676 806 1686.5 Q830 1697 846.5 1714.5 Q863 1732 872 1756 Q881 1780 881 1807 Q881 1834 872 1858 Q863 1882 846.5 1899.5 Q830 1917 806 1927.5 Q782 1938 752 1938 Q722 1938 698 1927.5 Q674 1917 657.5 1899.5 Q641 1882 632 1858 Q623 1834 623 1807 Q623 1780 632 1756 Q641 1732 657.5 1714.5 Q674 1697 698 1686.5 Q722 1676 752 1676 Z " />
<glyph glyph-name="Uhungarumlaut" unicode="&#x170;" horiz-adv-x="1495" d="M1346 721 Q1346 640 1342.5 568.5 Q1339 497 1328.5 433.5 Q1318 370 1298.5 314 Q1279 258 1247 209 Q1176 101 1047.5 39 Q919 -23 745 -23 Q658 -23 582.5 -6.5 Q507 10 444 40 Q381 70 331.5 113 Q282 156 248 209 Q216 259 196.5 315.5 Q177 372 166.5 434 Q156 496 153 562.5 Q150 629 150 698 L150 1483 L344 1483 L344 719 Q344 651 346.5 594.5 Q349 538 355.5 491.5 Q362 445 373 406.5 Q384 368 401 336 Q420 300 450.5 267.5 Q481 235 524 211 Q567 187 624 172.5 Q681 158 754 158 Q889 158 973.5 206 Q1058 254 1102 336 Q1137 402 1147 493.5 Q1157 585 1157 711 L1157 1483 L1346 1483 L1346 721 Z M947 1934 L1108 1934 L897 1598 L777 1598 L947 1934 Z M664 1934 L826 1934 L615 1598 L494 1598 L664 1934 Z " />
<glyph glyph-name="Uogonek" unicode="&#x172;" horiz-adv-x="1495" d="M1346 1483 L1346 721 Q1346 640 1342.5 568.5 Q1339 497 1328.5 433.5 Q1318 370 1298.5 314 Q1279 258 1247 209 Q1190 122 1095.5 65 Q1001 8 874 -12 Q802 -68 763.5 -127.5 Q725 -187 725 -244 Q725 -289 751.5 -316.5 Q778 -344 829 -344 Q846 -344 869 -341 Q892 -338 913 -332 L913 -455 Q889 -463 859.5 -468 Q830 -473 799 -473 Q746 -473 703.5 -457.5 Q661 -442 631 -415 Q601 -388 585 -351 Q569 -314 569 -270 Q569 -207 601.5 -143 Q634 -79 688 -25 L688 -20 Q535 -9 423 51.5 Q311 112 248 209 Q216 259 196.5 315.5 Q177 372 166.5 434 Q156 496 153 562.5 Q150 629 150 698 L150 1483 L344 1483 L344 719 Q344 651 346.5 594.5 Q349 538 355.5 491.5 Q362 445 373 406.5 Q384 368 401 336 Q420 300 450.5 267.5 Q481 235 524 211 Q567 187 624 172.5 Q681 158 754 158 Q889 158 973.5 206 Q1058 254 1102 336 Q1137 402 1147 493.5 Q1157 585 1157 711 L1157 1483 L1346 1483 Z " />
<glyph glyph-name="Wgrave" unicode="&#x1e80;" horiz-adv-x="2128" d="M516 733 Q547 653 574.5 579.5 Q602 506 627 438 L631 438 Q643 470 655 500.5 Q667 531 679.5 564 Q692 597 707.5 636 Q723 675 743 725 L1067 1534 L1071 1534 L1395 721 Q1413 675 1428 637 Q1443 599 1456 565.5 Q1469 532 1481 501 Q1493 470 1505 438 L1509 438 Q1522 472 1534.5 505.5 Q1547 539 1560.5 574.5 Q1574 610 1589 649.5 Q1604 689 1622 735 L1909 1483 L2111 1483 L1513 -51 L1509 -51 L1165 791 Q1137 859 1113 920 Q1089 981 1067 1036 L1063 1036 Q1041 979 1015.5 915.5 Q990 852 963 784 L621 -51 L616 -51 L16 1483 L229 1483 L516 733 Z M821 1934 L1028 1934 L1186 1598 L1047 1598 L821 1934 Z " />
<glyph glyph-name="Wacute" unicode="&#x1e82;" horiz-adv-x="2128" d="M516 733 Q547 653 574.5 579.5 Q602 506 627 438 L631 438 Q643 470 655 500.5 Q667 531 679.5 564 Q692 597 707.5 636 Q723 675 743 725 L1067 1534 L1071 1534 L1395 721 Q1413 675 1428 637 Q1443 599 1456 565.5 Q1469 532 1481 501 Q1493 470 1505 438 L1509 438 Q1522 472 1534.5 505.5 Q1547 539 1560.5 574.5 Q1574 610 1589 649.5 Q1604 689 1622 735 L1909 1483 L2111 1483 L1513 -51 L1509 -51 L1165 791 Q1137 859 1113 920 Q1089 981 1067 1036 L1063 1036 Q1041 979 1015.5 915.5 Q990 852 963 784 L621 -51 L616 -51 L16 1483 L229 1483 L516 733 Z M1088 1598 L948 1598 L1106 1934 L1313 1934 L1088 1598 Z " />
<glyph glyph-name="Wcircumflex" unicode="&#x174;" horiz-adv-x="2128" d="M516 733 Q547 653 574.5 579.5 Q602 506 627 438 L631 438 Q643 470 655 500.5 Q667 531 679.5 564 Q692 597 707.5 636 Q723 675 743 725 L1067 1534 L1071 1534 L1395 721 Q1413 675 1428 637 Q1443 599 1456 565.5 Q1469 532 1481 501 Q1493 470 1505 438 L1509 438 Q1522 472 1534.5 505.5 Q1547 539 1560.5 574.5 Q1574 610 1589 649.5 Q1604 689 1622 735 L1909 1483 L2111 1483 L1513 -51 L1509 -51 L1165 791 Q1137 859 1113 920 Q1089 981 1067 1036 L1063 1036 Q1041 979 1015.5 915.5 Q990 852 963 784 L621 -51 L616 -51 L16 1483 L229 1483 L516 733 Z M737 1606 L1063 1954 L1071 1954 L1397 1606 L1215 1606 L1065 1756 L915 1606 L737 1606 Z " />
<glyph glyph-name="Wdieresis" unicode="&#x1e84;" horiz-adv-x="2128" d="M516 733 Q547 653 574.5 579.5 Q602 506 627 438 L631 438 Q643 470 655 500.5 Q667 531 679.5 564 Q692 597 707.5 636 Q723 675 743 725 L1067 1534 L1071 1534 L1395 721 Q1413 675 1428 637 Q1443 599 1456 565.5 Q1469 532 1481 501 Q1493 470 1505 438 L1509 438 Q1522 472 1534.5 505.5 Q1547 539 1560.5 574.5 Q1574 610 1589 649.5 Q1604 689 1622 735 L1909 1483 L2111 1483 L1513 -51 L1509 -51 L1165 791 Q1137 859 1113 920 Q1089 981 1067 1036 L1063 1036 Q1041 979 1015.5 915.5 Q990 852 963 784 L621 -51 L616 -51 L16 1483 L229 1483 L516 733 Z M1155 1766 Q1155 1789 1164 1809.5 Q1173 1830 1188.5 1845.5 Q1204 1861 1224.5 1870 Q1245 1879 1268 1879 Q1291 1879 1311.5 1870 Q1332 1861 1347 1845.5 Q1362 1830 1371 1809.5 Q1380 1789 1380 1766 Q1380 1743 1371 1722.5 Q1362 1702 1347 1686.5 Q1332 1671 1311.5 1662 Q1291 1653 1268 1653 Q1245 1653 1224.5 1662 Q1204 1671 1188.5 1686.5 Q1173 1702 1164 1722.5 Q1155 1743 1155 1766 Z M754 1766 Q754 1789 763 1809.5 Q772 1830 787 1845.5 Q802 1861 822.5 1870 Q843 1879 866 1879 Q889 1879 909.5 1870 Q930 1861 945.5 1845.5 Q961 1830 970 1809.5 Q979 1789 979 1766 Q979 1743 970 1722.5 Q961 1702 945.5 1686.5 Q930 1671 909.5 1662 Q889 1653 866 1653 Q843 1653 822.5 1662 Q802 1671 787 1686.5 Q772 1702 763 1722.5 Q754 1743 754 1766 Z " />
<glyph glyph-name="Ygrave" unicode="&#x1ef2;" horiz-adv-x="1341" d="M575 662 L4 1483 L236 1483 L483 1118 Q533 1046 581 974 Q629 902 674 834 L678 834 Q721 899 771.5 974 Q822 1049 870 1120 L1116 1483 L1337 1483 L770 664 L770 0 L575 0 L575 662 Z M430 1934 L637 1934 L795 1598 L656 1598 L430 1934 Z " />
<glyph glyph-name="Yacute" unicode="&#xdd;" horiz-adv-x="1341" d="M575 662 L4 1483 L236 1483 L483 1118 Q533 1046 581 974 Q629 902 674 834 L678 834 Q721 899 771.5 974 Q822 1049 870 1120 L1116 1483 L1337 1483 L770 664 L770 0 L575 0 L575 662 Z M697 1598 L557 1598 L715 1934 L922 1934 L697 1598 Z " />
<glyph glyph-name="Ycircumflex" unicode="&#x176;" horiz-adv-x="1341" d="M575 662 L4 1483 L236 1483 L483 1118 Q533 1046 581 974 Q629 902 674 834 L678 834 Q721 899 771.5 974 Q822 1049 870 1120 L1116 1483 L1337 1483 L770 664 L770 0 L575 0 L575 662 Z M346 1606 L672 1954 L680 1954 L1006 1606 L824 1606 L674 1756 L524 1606 L346 1606 Z " />
<glyph glyph-name="Ydieresis" unicode="&#x178;" horiz-adv-x="1341" d="M575 662 L4 1483 L236 1483 L483 1118 Q533 1046 581 974 Q629 902 674 834 L678 834 Q721 899 771.5 974 Q822 1049 870 1120 L1116 1483 L1337 1483 L770 664 L770 0 L575 0 L575 662 Z M764 1766 Q764 1789 773 1809.5 Q782 1830 797.5 1845.5 Q813 1861 833.5 1870 Q854 1879 877 1879 Q900 1879 920.5 1870 Q941 1861 956 1845.5 Q971 1830 980 1809.5 Q989 1789 989 1766 Q989 1743 980 1722.5 Q971 1702 956 1686.5 Q941 1671 920.5 1662 Q900 1653 877 1653 Q854 1653 833.5 1662 Q813 1671 797.5 1686.5 Q782 1702 773 1722.5 Q764 1743 764 1766 Z M363 1766 Q363 1789 372 1809.5 Q381 1830 396 1845.5 Q411 1861 431.5 1870 Q452 1879 475 1879 Q498 1879 518.5 1870 Q539 1861 554.5 1845.5 Q570 1830 579 1809.5 Q588 1789 588 1766 Q588 1743 579 1722.5 Q570 1702 554.5 1686.5 Q539 1671 518.5 1662 Q498 1653 475 1653 Q452 1653 431.5 1662 Q411 1671 396 1686.5 Q381 1702 372 1722.5 Q363 1743 363 1766 Z " />
<glyph glyph-name="Zacute" unicode="&#x179;" horiz-adv-x="1309" d="M61 0 L59 4 L899 1303 L897 1307 L113 1307 L113 1483 L1239 1483 L1241 1479 L401 180 L403 176 L1225 176 L1225 0 L61 0 Z M682 1598 L542 1598 L700 1934 L907 1934 L682 1598 Z " />
<glyph glyph-name="Zcaron" unicode="&#x17d;" horiz-adv-x="1309" d="M61 0 L59 4 L899 1303 L897 1307 L113 1307 L113 1483 L1239 1483 L1241 1479 L401 180 L403 176 L1225 176 L1225 0 L61 0 Z M991 1926 L665 1578 L657 1578 L331 1926 L514 1926 L663 1776 L813 1926 L991 1926 Z " />
<glyph glyph-name="Zdotaccent" unicode="&#x17b;" horiz-adv-x="1309" d="M61 0 L59 4 L899 1303 L897 1307 L113 1307 L113 1483 L1239 1483 L1241 1479 L401 180 L403 176 L1225 176 L1225 0 L61 0 Z M663 1653 Q639 1653 618.5 1661.5 Q598 1670 583 1685.5 Q568 1701 559 1721.5 Q550 1742 550 1766 Q550 1790 559 1810.5 Q568 1831 583 1846 Q598 1861 618.5 1870 Q639 1879 663 1879 Q687 1879 707.5 1870 Q728 1861 743.5 1846 Q759 1831 767.5 1810.5 Q776 1790 776 1766 Q776 1742 767.5 1721.5 Q759 1701 743.5 1685.5 Q728 1670 707.5 1661.5 Q687 1653 663 1653 Z " />
<glyph glyph-name="Eng" unicode="&#x14a;" horiz-adv-x="1581" d="M166 0 L166 1532 L172 1534 L971 623 Q1048 535 1108.5 465 Q1169 395 1225 330 L1229 332 Q1227 412 1227 493.5 Q1227 575 1227 668 L1227 1483 L1415 1483 L1415 -20 Q1415 -86 1410 -137 Q1405 -188 1395.5 -227.5 Q1386 -267 1371 -296.5 Q1356 -326 1337 -350 Q1283 -416 1206.5 -444.5 Q1130 -473 1040 -473 Q972 -473 919.5 -459.5 Q867 -446 825 -430 L825 -246 Q881 -269 935.5 -281 Q990 -293 1036 -293 Q1097 -293 1135 -274 Q1173 -255 1193 -220.5 Q1213 -186 1220 -138 Q1227 -90 1227 -31 L1227 47 L610 745 Q532 834 471 903.5 Q410 973 356 1036 L352 1034 Q354 954 354 871.5 Q354 789 354 696 L354 0 L166 0 Z " />
<glyph glyph-name="Eth" unicode="&#xd0;" horiz-adv-x="1528" d="M6 836 L188 836 L188 1483 L596 1483 Q745 1483 876.5 1456.5 Q1008 1430 1120 1362 Q1200 1314 1262 1248 Q1324 1182 1366 1103.5 Q1408 1025 1430 935 Q1452 845 1452 748 Q1452 656 1432.5 569.5 Q1413 483 1375.5 406.5 Q1338 330 1283 265 Q1228 200 1157 150 Q1038 67 888.5 33.5 Q739 0 547 0 L188 0 L188 676 L6 676 L6 836 Z M578 176 Q711 176 820 197 Q929 218 1018 274 Q1071 308 1115 356 Q1159 404 1190.5 463.5 Q1222 523 1239.5 593 Q1257 663 1257 741 Q1257 822 1238.5 892 Q1220 962 1188 1020.5 Q1156 1079 1113 1125 Q1070 1171 1020 1204 Q972 1236 918.5 1256 Q865 1276 808 1287.5 Q751 1299 692 1303 Q633 1307 573 1307 L383 1307 L383 836 L702 836 L702 676 L383 676 L383 176 L578 176 Z " />
<glyph glyph-name="Thorn" unicode="&#xde;" horiz-adv-x="1274" d="M166 1483 L360 1483 L360 1194 L553 1194 Q612 1194 670 1192 Q728 1190 783 1182 Q838 1174 890.5 1158.5 Q943 1143 991 1116 Q1039 1089 1079 1053 Q1119 1017 1147 971.5 Q1175 926 1190.5 870.5 Q1206 815 1206 750 Q1206 687 1191.5 631.5 Q1177 576 1150.5 529.5 Q1124 483 1087 445.5 Q1050 408 1006 381 Q958 352 901.5 335 Q845 318 783 309.5 Q721 301 653.5 299 Q586 297 514 297 L360 297 L360 0 L166 0 L166 1483 Z M539 467 Q604 467 656 468.5 Q708 470 750.5 476 Q793 482 827.5 493 Q862 504 893 522 Q949 556 980.5 611 Q1012 666 1012 741 Q1012 825 974.5 882 Q937 939 874 971 Q840 988 803 997.5 Q766 1007 724 1011.5 Q682 1016 635.5 1017 Q589 1018 537 1018 L360 1018 L360 467 L539 467 Z " />
<glyph glyph-name="a" unicode="a" horiz-adv-x="1223" d="M874 66 Q817 25 746 1 Q675 -23 590 -23 Q488 -23 398.5 13.5 Q309 50 241.5 117 Q174 184 135 279 Q96 374 96 492 Q96 609 135.5 708 Q175 807 246 878.5 Q317 950 415 990 Q513 1030 629 1030 Q698 1030 761 1015.5 Q824 1001 883 975 L1061 1006 L1061 0 L879 0 L879 63 L874 66 Z M877 799 Q827 825 761.5 845.5 Q696 866 625 866 Q547 866 484 838.5 Q421 811 376.5 762.5 Q332 714 307.5 647 Q283 580 283 502 Q283 427 306 361 Q329 295 372 246 Q415 197 477 169 Q539 141 616 141 Q688 141 755.5 164 Q823 187 877 227 L877 799 Z " />
<glyph glyph-name="b" unicode="b" horiz-adv-x="1219" d="M162 1565 L346 1565 L346 950 L350 948 Q398 979 471 1004.5 Q544 1030 635 1030 Q737 1030 826.5 993 Q916 956 982.5 888.5 Q1049 821 1087.5 726.5 Q1126 632 1126 518 Q1126 401 1086 302 Q1046 203 975 131 Q904 59 806 18 Q708 -23 592 -23 Q521 -23 459 -7.5 Q397 8 340 31 L162 0 L162 1565 Z M346 205 Q371 190 401.5 178 Q432 166 465 157.5 Q498 149 532 144 Q566 139 598 139 Q675 139 738 167 Q801 195 846 244.5 Q891 294 915.5 361.5 Q940 429 940 508 Q940 584 916.5 649 Q893 714 850.5 762 Q808 810 747.5 837 Q687 864 612 864 Q531 864 464 838 Q397 812 346 770 L346 205 Z " />
<glyph glyph-name="c" unicode="c" horiz-adv-x="1024" d="M928 45 Q866 11 789 -6 Q712 -23 637 -23 Q518 -23 418 16.5 Q318 56 245.5 126 Q173 196 132.5 291.5 Q92 387 92 498 Q92 614 135 711.5 Q178 809 253 880 Q328 951 429 990.5 Q530 1030 647 1030 Q723 1030 791 1013 Q859 996 913 967 L913 778 Q853 816 783 839 Q713 862 641 862 Q560 862 493 833.5 Q426 805 378.5 755.5 Q331 706 305 640 Q279 574 279 498 Q279 421 306 356.5 Q333 292 381.5 245 Q430 198 497 171.5 Q564 145 645 145 Q730 145 801 171.5 Q872 198 928 242 L928 45 Z " />
<glyph glyph-name="d" unicode="d" horiz-adv-x="1223" d="M872 63 Q821 28 751 2.5 Q681 -23 590 -23 Q488 -23 398 13 Q308 49 241 115.5 Q174 182 135 276 Q96 370 96 487 Q96 603 135 702.5 Q174 802 244.5 874.5 Q315 947 413.5 988.5 Q512 1030 631 1030 Q706 1030 764.5 1014.5 Q823 999 872 977 L877 979 L877 1565 L1061 1565 L1061 0 L877 0 L877 61 L872 63 Z M877 803 Q826 829 761.5 847.5 Q697 866 629 866 Q549 866 485 837.5 Q421 809 376 759.5 Q331 710 307 643 Q283 576 283 498 Q283 423 305.5 357.5 Q328 292 371 244 Q414 196 475.5 168.5 Q537 141 614 141 Q690 141 756.5 165.5 Q823 190 877 227 L877 803 Z " />
<glyph glyph-name="e" unicode="e" horiz-adv-x="1153" d="M874 596 Q869 669 841.5 720 Q814 771 773.5 803 Q733 835 685 849.5 Q637 864 590 864 Q545 864 495.5 850 Q446 836 402.5 804 Q359 772 326.5 721 Q294 670 281 596 L874 596 Z M997 72 Q963 50 921 32.5 Q879 15 832.5 2.5 Q786 -10 736 -16.5 Q686 -23 637 -23 Q520 -23 420.5 14.5 Q321 52 248 121 Q175 190 133.5 287.5 Q92 385 92 504 Q92 623 132.5 720 Q173 817 242 886 Q311 955 402 992.5 Q493 1030 594 1030 Q686 1030 769.5 998 Q853 966 916 904.5 Q979 843 1016 752 Q1053 661 1053 543 Q1053 520 1051.5 493.5 Q1050 467 1047 449 L276 449 Q285 380 314.5 323.5 Q344 267 392 227 Q440 187 505 165 Q570 143 649 143 Q701 143 749 153 Q797 163 840.5 180 Q884 197 923 219.5 Q962 242 997 268 L997 72 Z " />
<glyph glyph-name="f" unicode="f" horiz-adv-x="760" d="M745 1397 Q726 1402 705 1406 Q684 1410 663 1413 Q642 1416 622.5 1417.5 Q603 1419 588 1419 Q535 1419 501.5 1404 Q468 1389 449 1363 Q430 1337 423 1301 Q416 1265 416 1223 L416 1008 L723 1008 L723 842 L416 842 L416 0 L231 0 L231 842 L-10 842 L-12 846 L135 1008 L231 1008 L231 1194 Q231 1244 235.5 1288 Q240 1332 251 1370.5 Q262 1409 281.5 1441.5 Q301 1474 330 1501 Q381 1548 445.5 1567.5 Q510 1587 580 1587 Q621 1587 667 1579.5 Q713 1572 745 1563 L745 1397 Z " />
<glyph glyph-name="g" unicode="g" horiz-adv-x="1214" d="M227 -201 Q300 -249 381 -277 Q462 -305 547 -305 Q619 -305 678 -284 Q737 -263 779.5 -223.5 Q822 -184 845 -127.5 Q868 -71 868 0 L868 74 L864 76 Q812 41 741 19.5 Q670 -2 590 -2 Q487 -2 397 35 Q307 72 240 138.5 Q173 205 134.5 298 Q96 391 96 502 Q96 608 131.5 704 Q167 800 234.5 872.5 Q302 945 398.5 987.5 Q495 1030 618 1030 Q697 1030 760 1014 Q823 998 874 973 L1053 1004 L1053 4 Q1053 -107 1017.5 -195 Q982 -283 916 -345 Q850 -407 756.5 -440 Q663 -473 547 -473 Q454 -473 372 -451 Q290 -429 227 -397 L227 -201 Z M868 797 Q820 826 752 846 Q684 866 614 866 Q538 866 477 838.5 Q416 811 373 763.5 Q330 716 306.5 652 Q283 588 283 514 Q283 438 307 373 Q331 308 375 261 Q419 214 480.5 187 Q542 160 616 160 Q686 160 754 182.5 Q822 205 868 242 L868 797 Z " />
<glyph glyph-name="h" unicode="h" horiz-adv-x="1212" d="M162 1565 L346 1565 L346 881 L350 879 Q416 945 506 987.5 Q596 1030 702 1030 Q786 1030 854.5 1002 Q923 974 971 920 Q992 896 1007.5 868.5 Q1023 841 1033.5 805.5 Q1044 770 1049.5 725.5 Q1055 681 1055 623 L1055 0 L870 0 L870 588 Q870 630 867.5 662 Q865 694 859 718 Q853 742 843.5 760 Q834 778 821 793 Q792 827 754 842.5 Q716 858 668 858 Q623 858 577.5 845 Q532 832 490 809.5 Q448 787 411 756 Q374 725 346 690 L346 0 L162 0 L162 1565 Z " />
<glyph glyph-name="i" unicode="i" horiz-adv-x="508" d="M162 1008 L346 1008 L346 0 L162 0 L162 1008 Z M135 1354 Q135 1378 144.5 1400 Q154 1422 170 1438 Q186 1454 207.5 1463.5 Q229 1473 254 1473 Q278 1473 300 1463.5 Q322 1454 338 1438 Q354 1422 363.5 1400 Q373 1378 373 1354 Q373 1329 363.5 1307.5 Q354 1286 338 1270 Q322 1254 300 1244.5 Q278 1235 254 1235 Q229 1235 207.5 1244.5 Q186 1254 170 1270 Q154 1286 144.5 1307.5 Q135 1329 135 1354 Z " />
<glyph glyph-name="j" unicode="j" horiz-adv-x="510" d="M164 1008 L348 1008 L348 -104 Q348 -161 343 -204 Q338 -247 328.5 -279.5 Q319 -312 306.5 -335.5 Q294 -359 279 -377 Q255 -405 226 -423.5 Q197 -442 165 -453 Q133 -464 99 -468.5 Q65 -473 31 -473 Q-4 -473 -34 -469 Q-64 -465 -90 -457 L-90 -291 Q-61 -297 -30.5 -301 Q0 -305 25 -305 Q68 -305 95.5 -291 Q123 -277 138 -251.5 Q153 -226 158.5 -191 Q164 -156 164 -113 L164 1008 Z M137 1354 Q137 1378 146.5 1400 Q156 1422 172 1438 Q188 1454 209.5 1463.5 Q231 1473 256 1473 Q281 1473 302.5 1463.5 Q324 1454 340 1438 Q356 1422 365.5 1400 Q375 1378 375 1354 Q375 1329 365.5 1307.5 Q356 1286 340 1270 Q324 1254 302.5 1244.5 Q281 1235 256 1235 Q231 1235 209.5 1244.5 Q188 1254 172 1270 Q156 1286 146.5 1307.5 Q137 1329 137 1354 Z " />
<glyph glyph-name="k" unicode="k" horiz-adv-x="1081" d="M162 1565 L346 1565 L346 565 L350 563 L801 1008 L1036 1008 L575 557 L1085 0 L844 0 L350 547 L346 545 L346 0 L162 0 L162 1565 Z " />
<glyph glyph-name="l" unicode="l" horiz-adv-x="508" d="M162 1565 L346 1565 L346 0 L162 0 L162 1565 Z " />
<glyph glyph-name="m" unicode="m" horiz-adv-x="1890" d="M1548 596 Q1548 668 1536.5 716.5 Q1525 765 1497 797 Q1468 831 1426 844.5 Q1384 858 1343 858 Q1299 858 1255.5 845 Q1212 832 1172 810 Q1132 788 1097 759.5 Q1062 731 1036 700 Q1038 683 1038 665 Q1038 647 1038 629 L1038 0 L854 0 L854 596 Q854 637 851.5 667.5 Q849 698 843.5 721 Q838 744 829 762 Q820 780 807 795 Q776 830 736.5 844 Q697 858 653 858 Q609 858 565 845 Q521 832 481.5 810.5 Q442 789 407 760 Q372 731 346 700 L346 0 L162 0 L162 1008 L346 1008 L346 885 L350 883 Q381 914 419 941 Q457 968 500.5 988 Q544 1008 592 1019 Q640 1030 692 1030 Q739 1030 784.5 1020 Q830 1010 870.5 988.5 Q911 967 944.5 934 Q978 901 1001 856 Q1092 943 1185.5 986.5 Q1279 1030 1384 1030 Q1466 1030 1534 1003 Q1602 976 1649 924 Q1695 873 1714 802.5 Q1733 732 1733 629 L1733 0 L1548 0 L1548 596 Z " />
<glyph glyph-name="n" unicode="n" horiz-adv-x="1212" d="M162 1008 L346 1008 L346 881 L350 879 Q416 945 506 987.5 Q596 1030 702 1030 Q786 1030 854.5 1002 Q923 974 971 920 Q992 896 1007.5 868.5 Q1023 841 1033.5 805.5 Q1044 770 1049.5 725.5 Q1055 681 1055 623 L1055 0 L870 0 L870 588 Q870 666 859 715 Q848 764 823 793 Q792 830 748 844 Q704 858 662 858 Q619 858 574.5 845 Q530 832 488 809.5 Q446 787 409.5 756.5 Q373 726 346 690 L346 0 L162 0 L162 1008 Z " />
<glyph glyph-name="o" unicode="o" horiz-adv-x="1249" d="M92 504 Q92 615 132 711.5 Q172 808 243.5 878.5 Q315 949 412.5 989.5 Q510 1030 625 1030 Q739 1030 836.5 989.5 Q934 949 1005.5 878.5 Q1077 808 1117 711.5 Q1157 615 1157 504 Q1157 393 1117 296.5 Q1077 200 1005.5 129 Q934 58 836.5 17.5 Q739 -23 625 -23 Q510 -23 412.5 17.5 Q315 58 243.5 129 Q172 200 132 296.5 Q92 393 92 504 Z M276 504 Q276 428 302.5 362.5 Q329 297 375.5 248.5 Q422 200 486 172.5 Q550 145 625 145 Q700 145 763.5 172.5 Q827 200 873.5 248.5 Q920 297 946.5 362.5 Q973 428 973 504 Q973 580 946.5 645.5 Q920 711 873.5 759 Q827 807 763.5 834.5 Q700 862 625 862 Q550 862 486 834.5 Q422 807 375.5 759 Q329 711 302.5 645.5 Q276 580 276 504 Z " />
<glyph glyph-name="p" unicode="p" horiz-adv-x="1219" d="M346 -451 L162 -451 L162 1008 L346 1008 L346 942 L350 940 Q403 977 475 1003.5 Q547 1030 637 1030 Q738 1030 827 992 Q916 954 982 885.5 Q1048 817 1086 721 Q1124 625 1124 508 Q1124 386 1082.5 288 Q1041 190 970 121 Q899 52 803 14.5 Q707 -23 598 -23 Q523 -23 460.5 -6.5 Q398 10 350 33 L346 31 L346 -451 Z M346 209 Q370 196 399 183.5 Q428 171 461 161 Q494 151 529.5 145 Q565 139 602 139 Q677 139 739 165.5 Q801 192 845.5 239 Q890 286 914 351 Q938 416 938 494 Q938 570 914.5 637.5 Q891 705 847.5 755.5 Q804 806 742.5 835 Q681 864 606 864 Q538 864 469 840.5 Q400 817 346 772 L346 209 Z " />
<glyph glyph-name="q" unicode="q" horiz-adv-x="1223" d="M872 57 Q820 25 751 1 Q682 -23 594 -23 Q491 -23 400 14 Q309 51 241.5 119 Q174 187 135 282.5 Q96 378 96 496 Q96 616 137 714 Q178 812 249.5 882.5 Q321 953 418.5 991.5 Q516 1030 629 1030 Q697 1030 759.5 1015.5 Q822 1001 881 973 L1061 1004 L1061 -451 L877 -451 L877 55 L872 57 Z M877 797 Q827 825 760.5 845.5 Q694 866 623 866 Q546 866 483.5 839 Q421 812 376.5 764 Q332 716 307.5 650 Q283 584 283 506 Q283 431 306.5 364 Q330 297 373.5 247 Q417 197 478.5 168 Q540 139 616 139 Q685 139 754 161 Q823 183 877 225 L877 797 Z " />
<glyph glyph-name="r" unicode="r" horiz-adv-x="752" d="M162 1008 L346 1008 L346 860 L350 858 Q403 932 481 974 Q559 1016 649 1016 Q665 1016 681.5 1014.5 Q698 1013 715 1008 L715 825 Q677 834 643 834 Q540 834 467 785.5 Q394 737 346 655 L346 0 L162 0 L162 1008 Z " />
<glyph glyph-name="s" unicode="s" horiz-adv-x="991" d="M127 258 Q169 229 216.5 207 Q264 185 313 171 Q362 157 410.5 150 Q459 143 504 143 Q602 143 660.5 176.5 Q719 210 719 281 Q719 324 695.5 349.5 Q672 375 633 390.5 Q594 406 543.5 414.5 Q493 423 438 434 Q370 447 309.5 466 Q249 485 204 517.5 Q159 550 132.5 599.5 Q106 649 106 723 Q106 798 136 855.5 Q166 913 218.5 952 Q271 991 343.5 1010.5 Q416 1030 502 1030 Q547 1030 593 1024.5 Q639 1019 684 1008 Q729 997 771 981.5 Q813 966 848 946 L848 762 Q807 787 762.5 806 Q718 825 672.5 838 Q627 851 582 857.5 Q537 864 496 864 Q451 864 414 856 Q377 848 350 832.5 Q323 817 308 793 Q293 769 293 737 Q293 696 316.5 673 Q340 650 378.5 636.5 Q417 623 466.5 615 Q516 607 569 596 Q640 582 701.5 562 Q763 542 808 508.5 Q853 475 879 424 Q905 373 905 297 Q905 213 871.5 152.5 Q838 92 782 53 Q726 14 652.5 -4.5 Q579 -23 498 -23 Q450 -23 400 -17.5 Q350 -12 301.5 -1 Q253 10 208.5 26 Q164 42 127 63 L127 258 Z " />
<glyph glyph-name="t" unicode="t" horiz-adv-x="805" d="M393 842 L393 412 Q393 339 403.5 291 Q414 243 438 211 Q464 176 502.5 161.5 Q541 147 586 147 Q626 147 667.5 157.5 Q709 168 743 188 L743 18 Q703 0 653.5 -11.5 Q604 -23 551 -23 Q516 -23 481 -17.5 Q446 -12 412.5 0.5 Q379 13 348 33.5 Q317 54 291 84 Q250 131 230.5 200 Q211 269 211 377 L211 842 L10 842 L8 846 L389 1264 L393 1262 L393 1008 L743 1008 L743 842 L393 842 Z " />
<glyph glyph-name="u" unicode="u" horiz-adv-x="1212" d="M862 129 Q796 63 707.5 20 Q619 -23 514 -23 Q437 -23 364 4 Q291 31 240 90 Q196 141 177 212.5 Q158 284 158 391 L158 1008 L342 1008 L342 426 Q342 384 344.5 352 Q347 320 353 295 Q359 270 368.5 251 Q378 232 391 217 Q422 179 464 163 Q506 147 551 147 Q598 147 643 161 Q688 175 728.5 199 Q769 223 804 254 Q839 285 866 319 L866 1008 L1051 1008 L1051 0 L866 0 L866 127 L862 129 Z " />
<glyph glyph-name="v" unicode="v" horiz-adv-x="1087" d="M547 -45 L543 -45 L12 1008 L219 1008 L412 614 Q447 542 479 476 Q511 410 545 338 L549 338 Q566 373 581.5 406 Q597 439 613.5 473 Q630 507 648.5 544 Q667 581 688 625 L877 1008 L1075 1008 L547 -45 Z " />
<glyph glyph-name="w" unicode="w" horiz-adv-x="1700" d="M403 592 Q419 554 432 524 Q445 494 456.5 466.5 Q468 439 479.5 411.5 Q491 384 504 352 L508 352 Q523 383 535.5 409.5 Q548 436 561 463 Q574 490 588.5 519 Q603 548 621 584 L852 1049 L856 1049 L1087 584 Q1105 548 1119.5 518.5 Q1134 489 1147.5 461.5 Q1161 434 1173.5 407.5 Q1186 381 1200 352 L1204 352 Q1216 382 1227.5 409 Q1239 436 1251 464.5 Q1263 493 1276 523.5 Q1289 554 1305 592 L1483 1008 L1679 1008 L1208 -45 L1204 -45 L950 467 Q924 520 899 571.5 Q874 623 852 670 L848 670 Q826 623 801 571.5 Q776 520 750 467 L496 -45 L492 -45 L20 1008 L225 1008 L403 592 Z " />
<glyph glyph-name="x" unicode="x" horiz-adv-x="1028" d="M670 203 Q631 255 589.5 312.5 Q548 370 514 418 L510 418 Q493 394 473 366.5 Q453 339 432 310.5 Q411 282 390 253.5 Q369 225 350 199 L203 0 L-6 0 L397 535 L41 1008 L258 1008 L367 860 Q405 808 444.5 754 Q484 700 516 653 L520 653 Q552 700 592.5 755.5 Q633 811 670 862 L776 1008 L985 1008 L633 539 L1036 0 L819 0 L670 203 Z " />
<glyph glyph-name="y" unicode="y" horiz-adv-x="1087" d="M176 -451 L449 109 L29 1008 L233 1008 L410 627 Q445 549 480.5 471 Q516 393 547 324 L551 324 Q585 399 619 474 Q653 549 688 627 L864 1008 L1059 1008 L377 -451 L176 -451 Z " />
<glyph glyph-name="z" unicode="z" horiz-adv-x="965" d="M41 0 L39 4 L590 836 L588 840 L80 840 L80 1008 L913 1008 L915 1004 L365 172 L367 168 L903 168 L903 0 L41 0 Z " />
<glyph glyph-name="agrave" unicode="&#xe0;" horiz-adv-x="1223" d="M874 66 Q817 25 746 1 Q675 -23 590 -23 Q488 -23 398.5 13.5 Q309 50 241.5 117 Q174 184 135 279 Q96 374 96 492 Q96 609 135.5 708 Q175 807 246 878.5 Q317 950 415 990 Q513 1030 629 1030 Q698 1030 761 1015.5 Q824 1001 883 975 L1061 1006 L1061 0 L879 0 L879 63 L874 66 Z M877 799 Q827 825 761.5 845.5 Q696 866 625 866 Q547 866 484 838.5 Q421 811 376.5 762.5 Q332 714 307.5 647 Q283 580 283 502 Q283 427 306 361 Q329 295 372 246 Q415 197 477 169 Q539 141 616 141 Q688 141 755.5 164 Q823 187 877 227 L877 799 Z M385 1489 L592 1489 L750 1153 L611 1153 L385 1489 Z " />
<glyph glyph-name="aacute" unicode="&#xe1;" horiz-adv-x="1223" d="M874 66 Q817 25 746 1 Q675 -23 590 -23 Q488 -23 398.5 13.5 Q309 50 241.5 117 Q174 184 135 279 Q96 374 96 492 Q96 609 135.5 708 Q175 807 246 878.5 Q317 950 415 990 Q513 1030 629 1030 Q698 1030 761 1015.5 Q824 1001 883 975 L1061 1006 L1061 0 L879 0 L879 63 L874 66 Z M877 799 Q827 825 761.5 845.5 Q696 866 625 866 Q547 866 484 838.5 Q421 811 376.5 762.5 Q332 714 307.5 647 Q283 580 283 502 Q283 427 306 361 Q329 295 372 246 Q415 197 477 169 Q539 141 616 141 Q688 141 755.5 164 Q823 187 877 227 L877 799 Z M652 1153 L512 1153 L670 1489 L877 1489 L652 1153 Z " />
<glyph glyph-name="acircumflex" unicode="&#xe2;" horiz-adv-x="1223" d="M874 66 Q817 25 746 1 Q675 -23 590 -23 Q488 -23 398.5 13.5 Q309 50 241.5 117 Q174 184 135 279 Q96 374 96 492 Q96 609 135.5 708 Q175 807 246 878.5 Q317 950 415 990 Q513 1030 629 1030 Q698 1030 761 1015.5 Q824 1001 883 975 L1061 1006 L1061 0 L879 0 L879 63 L874 66 Z M877 799 Q827 825 761.5 845.5 Q696 866 625 866 Q547 866 484 838.5 Q421 811 376.5 762.5 Q332 714 307.5 647 Q283 580 283 502 Q283 427 306 361 Q329 295 372 246 Q415 197 477 169 Q539 141 616 141 Q688 141 755.5 164 Q823 187 877 227 L877 799 Z M301 1161 L627 1509 L635 1509 L961 1161 L779 1161 L629 1311 L479 1161 L301 1161 Z " />
<glyph glyph-name="atilde" unicode="&#xe3;" horiz-adv-x="1223" d="M874 66 Q817 25 746 1 Q675 -23 590 -23 Q488 -23 398.5 13.5 Q309 50 241.5 117 Q174 184 135 279 Q96 374 96 492 Q96 609 135.5 708 Q175 807 246 878.5 Q317 950 415 990 Q513 1030 629 1030 Q698 1030 761 1015.5 Q824 1001 883 975 L1061 1006 L1061 0 L879 0 L879 63 L874 66 Z M877 799 Q827 825 761.5 845.5 Q696 866 625 866 Q547 866 484 838.5 Q421 811 376.5 762.5 Q332 714 307.5 647 Q283 580 283 502 Q283 427 306 361 Q329 295 372 246 Q415 197 477 169 Q539 141 616 141 Q688 141 755.5 164 Q823 187 877 227 L877 799 Z M310 1360 Q337 1398 380.5 1423 Q424 1448 479 1448 Q520 1448 559.5 1435 Q599 1422 645 1399 Q690 1376 720.5 1364 Q751 1352 783 1352 Q810 1352 834 1360.5 Q858 1369 878 1383 Q898 1397 915.5 1414.5 Q933 1432 948 1450 L953 1448 L953 1288 Q925 1250 881.5 1225 Q838 1200 783 1200 Q742 1200 702.5 1213 Q663 1226 617 1249 Q572 1272 542 1284 Q512 1296 479 1296 Q452 1296 428.5 1287.5 Q405 1279 384.5 1265 Q364 1251 346.5 1233.5 Q329 1216 314 1198 L310 1200 L310 1360 Z " />
<glyph glyph-name="adieresis" unicode="&#xe4;" horiz-adv-x="1223" d="M874 66 Q817 25 746 1 Q675 -23 590 -23 Q488 -23 398.5 13.5 Q309 50 241.5 117 Q174 184 135 279 Q96 374 96 492 Q96 609 135.5 708 Q175 807 246 878.5 Q317 950 415 990 Q513 1030 629 1030 Q698 1030 761 1015.5 Q824 1001 883 975 L1061 1006 L1061 0 L879 0 L879 63 L874 66 Z M877 799 Q827 825 761.5 845.5 Q696 866 625 866 Q547 866 484 838.5 Q421 811 376.5 762.5 Q332 714 307.5 647 Q283 580 283 502 Q283 427 306 361 Q329 295 372 246 Q415 197 477 169 Q539 141 616 141 Q688 141 755.5 164 Q823 187 877 227 L877 799 Z M719 1321 Q719 1344 728 1364.5 Q737 1385 752.5 1400.5 Q768 1416 788.5 1425 Q809 1434 832 1434 Q855 1434 875.5 1425 Q896 1416 911 1400.5 Q926 1385 935 1364.5 Q944 1344 944 1321 Q944 1298 935 1277.5 Q926 1257 911 1241.5 Q896 1226 875.5 1217 Q855 1208 832 1208 Q809 1208 788.5 1217 Q768 1226 752.5 1241.5 Q737 1257 728 1277.5 Q719 1298 719 1321 Z M318 1321 Q318 1344 327 1364.5 Q336 1385 351 1400.5 Q366 1416 386.5 1425 Q407 1434 430 1434 Q453 1434 473.5 1425 Q494 1416 509.5 1400.5 Q525 1385 534 1364.5 Q543 1344 543 1321 Q543 1298 534 1277.5 Q525 1257 509.5 1241.5 Q494 1226 473.5 1217 Q453 1208 430 1208 Q407 1208 386.5 1217 Q366 1226 351 1241.5 Q336 1257 327 1277.5 Q318 1298 318 1321 Z " />
<glyph glyph-name="amacron" unicode="&#x101;" horiz-adv-x="1223" d="M874 66 Q817 25 746 1 Q675 -23 590 -23 Q488 -23 398.5 13.5 Q309 50 241.5 117 Q174 184 135 279 Q96 374 96 492 Q96 609 135.5 708 Q175 807 246 878.5 Q317 950 415 990 Q513 1030 629 1030 Q698 1030 761 1015.5 Q824 1001 883 975 L1061 1006 L1061 0 L879 0 L879 63 L874 66 Z M877 799 Q827 825 761.5 845.5 Q696 866 625 866 Q547 866 484 838.5 Q421 811 376.5 762.5 Q332 714 307.5 647 Q283 580 283 502 Q283 427 306 361 Q329 295 372 246 Q415 197 477 169 Q539 141 616 141 Q688 141 755.5 164 Q823 187 877 227 L877 799 Z M350 1391 L912 1391 L912 1251 L350 1251 L350 1391 Z " />
<glyph glyph-name="abreve" unicode="&#x103;" horiz-adv-x="1223" d="M874 66 Q817 25 746 1 Q675 -23 590 -23 Q488 -23 398.5 13.5 Q309 50 241.5 117 Q174 184 135 279 Q96 374 96 492 Q96 609 135.5 708 Q175 807 246 878.5 Q317 950 415 990 Q513 1030 629 1030 Q698 1030 761 1015.5 Q824 1001 883 975 L1061 1006 L1061 0 L879 0 L879 63 L874 66 Z M877 799 Q827 825 761.5 845.5 Q696 866 625 866 Q547 866 484 838.5 Q421 811 376.5 762.5 Q332 714 307.5 647 Q283 580 283 502 Q283 427 306 361 Q329 295 372 246 Q415 197 477 169 Q539 141 616 141 Q688 141 755.5 164 Q823 187 877 227 L877 799 Z M916 1475 Q914 1410 895.5 1354.5 Q877 1299 841.5 1258.5 Q806 1218 753.5 1194.5 Q701 1171 631 1171 Q560 1171 508 1194.5 Q456 1218 420.5 1258.5 Q385 1299 367 1354.5 Q349 1410 346 1475 L465 1475 Q468 1439 478 1404.5 Q488 1370 507.5 1344 Q527 1318 557 1302 Q587 1286 631 1286 Q675 1286 705 1302 Q735 1318 754.5 1344 Q774 1370 784 1404.5 Q794 1439 797 1475 L916 1475 Z " />
<glyph glyph-name="aring" unicode="&#xe5;" horiz-adv-x="1223" d="M874 66 Q817 25 746 1 Q675 -23 590 -23 Q488 -23 398.5 13.5 Q309 50 241.5 117 Q174 184 135 279 Q96 374 96 492 Q96 609 135.5 708 Q175 807 246 878.5 Q317 950 415 990 Q513 1030 629 1030 Q698 1030 761 1015.5 Q824 1001 883 975 L1061 1006 L1061 0 L879 0 L879 63 L874 66 Z M877 799 Q827 825 761.5 845.5 Q696 866 625 866 Q547 866 484 838.5 Q421 811 376.5 762.5 Q332 714 307.5 647 Q283 580 283 502 Q283 427 306 361 Q329 295 372 246 Q415 197 477 169 Q539 141 616 141 Q688 141 755.5 164 Q823 187 877 227 L877 799 Z M631 1128 Q580 1128 536.5 1146 Q493 1164 460.5 1195.5 Q428 1227 409.5 1269.5 Q391 1312 391 1362 Q391 1412 409.5 1454.5 Q428 1497 460.5 1528.5 Q493 1560 536.5 1577.5 Q580 1595 631 1595 Q682 1595 725.5 1577.5 Q769 1560 801.5 1528.5 Q834 1497 852.5 1454.5 Q871 1412 871 1362 Q871 1312 852.5 1269.5 Q834 1227 801.5 1195.5 Q769 1164 725.5 1146 Q682 1128 631 1128 Z M631 1231 Q661 1231 685 1241.5 Q709 1252 725.5 1269.5 Q742 1287 751 1311 Q760 1335 760 1362 Q760 1389 751 1413 Q742 1437 725.5 1454.5 Q709 1472 685 1482.5 Q661 1493 631 1493 Q601 1493 577 1482.5 Q553 1472 536.5 1454.5 Q520 1437 511 1413 Q502 1389 502 1362 Q502 1335 511 1311 Q520 1287 536.5 1269.5 Q553 1252 577 1241.5 Q601 1231 631 1231 Z " />
<glyph glyph-name="aogonek" unicode="&#x105;" horiz-adv-x="1223" d="M874 66 Q817 25 746 1 Q675 -23 590 -23 Q488 -23 398.5 13.5 Q309 50 241.5 117 Q174 184 135 279 Q96 374 96 492 Q96 609 135.5 708 Q175 807 246 878.5 Q317 950 415 990 Q513 1030 629 1030 Q698 1030 761 1015.5 Q824 1001 883 975 L1061 1006 L1061 0 Q976 -57 933.5 -119 Q891 -181 891 -240 Q891 -289 917.5 -316.5 Q944 -344 995 -344 Q1015 -344 1034.5 -341.5 Q1054 -339 1075 -334 L1075 -457 Q1052 -465 1024 -469 Q996 -473 965 -473 Q912 -473 869.5 -458 Q827 -443 797 -416 Q767 -389 751 -351 Q735 -313 735 -268 Q735 -200 770.5 -130 Q806 -60 879 0 L879 63 L874 66 Z M877 799 Q827 825 761.5 845.5 Q696 866 625 866 Q547 866 484 838.5 Q421 811 376.5 762.5 Q332 714 307.5 647 Q283 580 283 502 Q283 427 306 361 Q329 295 372 246 Q415 197 477 169 Q539 141 616 141 Q688 141 755.5 164 Q823 187 877 227 L877 799 Z " />
<glyph glyph-name="ae" unicode="&#xe6;" horiz-adv-x="1860" d="M817 842 Q774 854 729.5 860 Q685 866 645 866 Q560 866 492.5 839.5 Q425 813 378.5 765 Q332 717 307.5 650.5 Q283 584 283 504 Q283 426 305.5 360 Q328 294 370.5 245 Q413 196 473.5 168.5 Q534 141 610 141 Q682 141 751.5 165.5 Q821 190 881 238 Q849 296 833 364 Q817 432 817 504 L817 842 Z M1581 596 Q1576 657 1553.5 706.5 Q1531 756 1494.5 791 Q1458 826 1409 845 Q1360 864 1303 864 Q1253 864 1203 848.5 Q1153 833 1111 800.5 Q1069 768 1039 717 Q1009 666 997 596 L1581 596 Z M995 889 Q1054 958 1135.5 994 Q1217 1030 1313 1030 Q1404 1030 1485 997.5 Q1566 965 1627 902.5 Q1688 840 1723.5 750 Q1759 660 1759 545 Q1759 522 1757.5 494.5 Q1756 467 1753 449 L995 449 Q1006 371 1039.5 313.5 Q1073 256 1122 218 Q1171 180 1232 161.5 Q1293 143 1360 143 Q1462 143 1549 179.5 Q1636 216 1704 268 L1704 72 Q1670 50 1628 32.5 Q1586 15 1539 2.5 Q1492 -10 1442 -16.5 Q1392 -23 1343 -23 Q1222 -23 1127.5 16 Q1033 55 965 121 Q887 55 796 16 Q705 -23 594 -23 Q489 -23 398.5 13 Q308 49 240.5 116 Q173 183 134.5 278 Q96 373 96 492 Q96 611 136 710 Q176 809 248.5 880 Q321 951 422.5 990.5 Q524 1030 647 1030 Q692 1030 738.5 1024.5 Q785 1019 829 1009.5 Q873 1000 914.5 987.5 Q956 975 991 961 L991 891 L995 889 Z " />
<glyph glyph-name="aeacute" unicode="&#x1fd;" horiz-adv-x="1860" d="M817 842 Q774 854 729.5 860 Q685 866 645 866 Q560 866 492.5 839.5 Q425 813 378.5 765 Q332 717 307.5 650.5 Q283 584 283 504 Q283 426 305.5 360 Q328 294 370.5 245 Q413 196 473.5 168.5 Q534 141 610 141 Q682 141 751.5 165.5 Q821 190 881 238 Q849 296 833 364 Q817 432 817 504 L817 842 Z M1581 596 Q1576 657 1553.5 706.5 Q1531 756 1494.5 791 Q1458 826 1409 845 Q1360 864 1303 864 Q1253 864 1203 848.5 Q1153 833 1111 800.5 Q1069 768 1039 717 Q1009 666 997 596 L1581 596 Z M995 889 Q1054 958 1135.5 994 Q1217 1030 1313 1030 Q1404 1030 1485 997.5 Q1566 965 1627 902.5 Q1688 840 1723.5 750 Q1759 660 1759 545 Q1759 522 1757.5 494.5 Q1756 467 1753 449 L995 449 Q1006 371 1039.5 313.5 Q1073 256 1122 218 Q1171 180 1232 161.5 Q1293 143 1360 143 Q1462 143 1549 179.5 Q1636 216 1704 268 L1704 72 Q1670 50 1628 32.5 Q1586 15 1539 2.5 Q1492 -10 1442 -16.5 Q1392 -23 1343 -23 Q1222 -23 1127.5 16 Q1033 55 965 121 Q887 55 796 16 Q705 -23 594 -23 Q489 -23 398.5 13 Q308 49 240.5 116 Q173 183 134.5 278 Q96 373 96 492 Q96 611 136 710 Q176 809 248.5 880 Q321 951 422.5 990.5 Q524 1030 647 1030 Q692 1030 738.5 1024.5 Q785 1019 829 1009.5 Q873 1000 914.5 987.5 Q956 975 991 961 L991 891 L995 889 Z M984 1153 L844 1153 L1002 1489 L1209 1489 L984 1153 Z " />
<glyph glyph-name="cacute" unicode="&#x107;" horiz-adv-x="1024" d="M928 45 Q866 11 789 -6 Q712 -23 637 -23 Q518 -23 418 16.5 Q318 56 245.5 126 Q173 196 132.5 291.5 Q92 387 92 498 Q92 614 135 711.5 Q178 809 253 880 Q328 951 429 990.5 Q530 1030 647 1030 Q723 1030 791 1013 Q859 996 913 967 L913 778 Q853 816 783 839 Q713 862 641 862 Q560 862 493 833.5 Q426 805 378.5 755.5 Q331 706 305 640 Q279 574 279 498 Q279 421 306 356.5 Q333 292 381.5 245 Q430 198 497 171.5 Q564 145 645 145 Q730 145 801 171.5 Q872 198 928 242 L928 45 Z M668 1153 L528 1153 L686 1489 L893 1489 L668 1153 Z " />
<glyph glyph-name="ccircumflex" unicode="&#x109;" horiz-adv-x="1024" d="M928 45 Q866 11 789 -6 Q712 -23 637 -23 Q518 -23 418 16.5 Q318 56 245.5 126 Q173 196 132.5 291.5 Q92 387 92 498 Q92 614 135 711.5 Q178 809 253 880 Q328 951 429 990.5 Q530 1030 647 1030 Q723 1030 791 1013 Q859 996 913 967 L913 778 Q853 816 783 839 Q713 862 641 862 Q560 862 493 833.5 Q426 805 378.5 755.5 Q331 706 305 640 Q279 574 279 498 Q279 421 306 356.5 Q333 292 381.5 245 Q430 198 497 171.5 Q564 145 645 145 Q730 145 801 171.5 Q872 198 928 242 L928 45 Z M250 1161 L576 1509 L584 1509 L910 1161 L728 1161 L578 1311 L428 1161 L250 1161 Z " />
<glyph glyph-name="ccaron" unicode="&#x10d;" horiz-adv-x="1024" d="M928 45 Q866 11 789 -6 Q712 -23 637 -23 Q518 -23 418 16.5 Q318 56 245.5 126 Q173 196 132.5 291.5 Q92 387 92 498 Q92 614 135 711.5 Q178 809 253 880 Q328 951 429 990.5 Q530 1030 647 1030 Q723 1030 791 1013 Q859 996 913 967 L913 778 Q853 816 783 839 Q713 862 641 862 Q560 862 493 833.5 Q426 805 378.5 755.5 Q331 706 305 640 Q279 574 279 498 Q279 421 306 356.5 Q333 292 381.5 245 Q430 198 497 171.5 Q564 145 645 145 Q730 145 801 171.5 Q872 198 928 242 L928 45 Z M910 1481 L584 1133 L576 1133 L250 1481 L433 1481 L582 1331 L732 1481 L910 1481 Z " />
<glyph glyph-name="cdotaccent" unicode="&#x10b;" horiz-adv-x="1024" d="M928 45 Q866 11 789 -6 Q712 -23 637 -23 Q518 -23 418 16.5 Q318 56 245.5 126 Q173 196 132.5 291.5 Q92 387 92 498 Q92 614 135 711.5 Q178 809 253 880 Q328 951 429 990.5 Q530 1030 647 1030 Q723 1030 791 1013 Q859 996 913 967 L913 778 Q853 816 783 839 Q713 862 641 862 Q560 862 493 833.5 Q426 805 378.5 755.5 Q331 706 305 640 Q279 574 279 498 Q279 421 306 356.5 Q333 292 381.5 245 Q430 198 497 171.5 Q564 145 645 145 Q730 145 801 171.5 Q872 198 928 242 L928 45 Z M582 1208 Q558 1208 537.5 1216.5 Q517 1225 502 1240.5 Q487 1256 478 1276.5 Q469 1297 469 1321 Q469 1345 478 1365.5 Q487 1386 502 1401 Q517 1416 537.5 1425 Q558 1434 582 1434 Q606 1434 626.5 1425 Q647 1416 662.5 1401 Q678 1386 686.5 1365.5 Q695 1345 695 1321 Q695 1297 686.5 1276.5 Q678 1256 662.5 1240.5 Q647 1225 626.5 1216.5 Q606 1208 582 1208 Z " />
<glyph glyph-name="ccedilla" unicode="&#xe7;" horiz-adv-x="1024" d="M627 -23 L606 -88 Q690 -107 739 -151 Q788 -195 788 -272 Q788 -313 773 -346.5 Q758 -380 730 -403.5 Q702 -427 662 -440 Q622 -453 573 -453 Q525 -453 483 -442 Q441 -431 410 -416 L440 -311 Q474 -328 507 -339 Q540 -350 571 -350 Q612 -350 641 -332 Q670 -314 670 -279 Q670 -250 651 -230.5 Q632 -211 603.5 -199.5 Q575 -188 542 -183 Q509 -178 481 -176 L530 -14 Q432 3 351.5 48 Q271 93 213.5 160.5 Q156 228 124 314 Q92 400 92 498 Q92 614 135 711.5 Q178 809 253 880 Q328 951 429 990.5 Q530 1030 647 1030 Q723 1030 791 1013 Q859 996 913 967 L913 778 Q853 816 783 839 Q713 862 641 862 Q560 862 493 833.5 Q426 805 378.5 755.5 Q331 706 305 640 Q279 574 279 498 Q279 421 306 356.5 Q333 292 381.5 245 Q430 198 497 171.5 Q564 145 645 145 Q730 145 801 171.5 Q872 198 928 242 L928 45 Q866 11 789 -6 Q712 -23 637 -23 L627 -23 Z " />
<glyph glyph-name="dcaron" unicode="&#x10f;" horiz-adv-x="1417" d="M872 63 Q821 28 751 2.5 Q681 -23 590 -23 Q488 -23 398 13 Q308 49 241 115.5 Q174 182 135 276 Q96 370 96 487 Q96 603 135 702.5 Q174 802 244.5 874.5 Q315 947 413.5 988.5 Q512 1030 631 1030 Q706 1030 764.5 1014.5 Q823 999 872 977 L877 979 L877 1565 L1061 1565 L1061 0 L877 0 L877 61 L872 63 Z M877 803 Q826 829 761.5 847.5 Q697 866 629 866 Q549 866 485 837.5 Q421 809 376 759.5 Q331 710 307 643 Q283 576 283 498 Q283 423 305.5 357.5 Q328 292 371 244 Q414 196 475.5 168.5 Q537 141 614 141 Q690 141 756.5 165.5 Q823 190 877 227 L877 803 Z M1474 1564 L1319 1118 L1186 1118 L1294 1564 L1474 1564 Z " />
<glyph glyph-name="dcroat" unicode="&#x111;" horiz-adv-x="1223" d="M524 1352 L877 1352 L877 1565 L1061 1565 L1061 1352 L1202 1352 L1202 1202 L1061 1202 L1061 0 L877 0 L877 61 L872 63 Q821 28 751 2.5 Q681 -23 590 -23 Q488 -23 398 13 Q308 49 241 115.5 Q174 182 135 276 Q96 370 96 487 Q96 603 135 702.5 Q174 802 244.5 874.5 Q315 947 413.5 988.5 Q512 1030 631 1030 Q706 1030 764.5 1014.5 Q823 999 872 977 L877 979 L877 1202 L524 1202 L524 1352 Z M877 803 Q826 829 761.5 847.5 Q697 866 629 866 Q549 866 485 837.5 Q421 809 376 759.5 Q331 710 307 643 Q283 576 283 498 Q283 423 305.5 357.5 Q328 292 371 244 Q414 196 475.5 168.5 Q537 141 614 141 Q690 141 756.5 165.5 Q823 190 877 227 L877 803 Z " />
<glyph glyph-name="egrave" unicode="&#xe8;" horiz-adv-x="1153" d="M874 596 Q869 669 841.5 720 Q814 771 773.5 803 Q733 835 685 849.5 Q637 864 590 864 Q545 864 495.5 850 Q446 836 402.5 804 Q359 772 326.5 721 Q294 670 281 596 L874 596 Z M997 72 Q963 50 921 32.5 Q879 15 832.5 2.5 Q786 -10 736 -16.5 Q686 -23 637 -23 Q520 -23 420.5 14.5 Q321 52 248 121 Q175 190 133.5 287.5 Q92 385 92 504 Q92 623 132.5 720 Q173 817 242 886 Q311 955 402 992.5 Q493 1030 594 1030 Q686 1030 769.5 998 Q853 966 916 904.5 Q979 843 1016 752 Q1053 661 1053 543 Q1053 520 1051.5 493.5 Q1050 467 1047 449 L276 449 Q285 380 314.5 323.5 Q344 267 392 227 Q440 187 505 165 Q570 143 649 143 Q701 143 749 153 Q797 163 840.5 180 Q884 197 923 219.5 Q962 242 997 268 L997 72 Z M338 1489 L545 1489 L703 1153 L564 1153 L338 1489 Z " />
<glyph glyph-name="eacute" unicode="&#xe9;" horiz-adv-x="1153" d="M874 596 Q869 669 841.5 720 Q814 771 773.5 803 Q733 835 685 849.5 Q637 864 590 864 Q545 864 495.5 850 Q446 836 402.5 804 Q359 772 326.5 721 Q294 670 281 596 L874 596 Z M997 72 Q963 50 921 32.5 Q879 15 832.5 2.5 Q786 -10 736 -16.5 Q686 -23 637 -23 Q520 -23 420.5 14.5 Q321 52 248 121 Q175 190 133.5 287.5 Q92 385 92 504 Q92 623 132.5 720 Q173 817 242 886 Q311 955 402 992.5 Q493 1030 594 1030 Q686 1030 769.5 998 Q853 966 916 904.5 Q979 843 1016 752 Q1053 661 1053 543 Q1053 520 1051.5 493.5 Q1050 467 1047 449 L276 449 Q285 380 314.5 323.5 Q344 267 392 227 Q440 187 505 165 Q570 143 649 143 Q701 143 749 153 Q797 163 840.5 180 Q884 197 923 219.5 Q962 242 997 268 L997 72 Z M605 1153 L465 1153 L623 1489 L830 1489 L605 1153 Z " />
<glyph glyph-name="ecircumflex" unicode="&#xea;" horiz-adv-x="1153" d="M874 596 Q869 669 841.5 720 Q814 771 773.5 803 Q733 835 685 849.5 Q637 864 590 864 Q545 864 495.5 850 Q446 836 402.5 804 Q359 772 326.5 721 Q294 670 281 596 L874 596 Z M997 72 Q963 50 921 32.5 Q879 15 832.5 2.5 Q786 -10 736 -16.5 Q686 -23 637 -23 Q520 -23 420.5 14.5 Q321 52 248 121 Q175 190 133.5 287.5 Q92 385 92 504 Q92 623 132.5 720 Q173 817 242 886 Q311 955 402 992.5 Q493 1030 594 1030 Q686 1030 769.5 998 Q853 966 916 904.5 Q979 843 1016 752 Q1053 661 1053 543 Q1053 520 1051.5 493.5 Q1050 467 1047 449 L276 449 Q285 380 314.5 323.5 Q344 267 392 227 Q440 187 505 165 Q570 143 649 143 Q701 143 749 153 Q797 163 840.5 180 Q884 197 923 219.5 Q962 242 997 268 L997 72 Z M254 1161 L580 1509 L588 1509 L914 1161 L732 1161 L582 1311 L432 1161 L254 1161 Z " />
<glyph glyph-name="ecaron" unicode="&#x11b;" horiz-adv-x="1153" d="M874 596 Q869 669 841.5 720 Q814 771 773.5 803 Q733 835 685 849.5 Q637 864 590 864 Q545 864 495.5 850 Q446 836 402.5 804 Q359 772 326.5 721 Q294 670 281 596 L874 596 Z M997 72 Q963 50 921 32.5 Q879 15 832.5 2.5 Q786 -10 736 -16.5 Q686 -23 637 -23 Q520 -23 420.5 14.5 Q321 52 248 121 Q175 190 133.5 287.5 Q92 385 92 504 Q92 623 132.5 720 Q173 817 242 886 Q311 955 402 992.5 Q493 1030 594 1030 Q686 1030 769.5 998 Q853 966 916 904.5 Q979 843 1016 752 Q1053 661 1053 543 Q1053 520 1051.5 493.5 Q1050 467 1047 449 L276 449 Q285 380 314.5 323.5 Q344 267 392 227 Q440 187 505 165 Q570 143 649 143 Q701 143 749 153 Q797 163 840.5 180 Q884 197 923 219.5 Q962 242 997 268 L997 72 Z M914 1481 L588 1133 L580 1133 L254 1481 L437 1481 L586 1331 L736 1481 L914 1481 Z " />
<glyph glyph-name="edieresis" unicode="&#xeb;" horiz-adv-x="1153" d="M874 596 Q869 669 841.5 720 Q814 771 773.5 803 Q733 835 685 849.5 Q637 864 590 864 Q545 864 495.5 850 Q446 836 402.5 804 Q359 772 326.5 721 Q294 670 281 596 L874 596 Z M997 72 Q963 50 921 32.5 Q879 15 832.5 2.5 Q786 -10 736 -16.5 Q686 -23 637 -23 Q520 -23 420.5 14.5 Q321 52 248 121 Q175 190 133.5 287.5 Q92 385 92 504 Q92 623 132.5 720 Q173 817 242 886 Q311 955 402 992.5 Q493 1030 594 1030 Q686 1030 769.5 998 Q853 966 916 904.5 Q979 843 1016 752 Q1053 661 1053 543 Q1053 520 1051.5 493.5 Q1050 467 1047 449 L276 449 Q285 380 314.5 323.5 Q344 267 392 227 Q440 187 505 165 Q570 143 649 143 Q701 143 749 153 Q797 163 840.5 180 Q884 197 923 219.5 Q962 242 997 268 L997 72 Z M672 1321 Q672 1344 681 1364.5 Q690 1385 705.5 1400.5 Q721 1416 741.5 1425 Q762 1434 785 1434 Q808 1434 828.5 1425 Q849 1416 864 1400.5 Q879 1385 888 1364.5 Q897 1344 897 1321 Q897 1298 888 1277.5 Q879 1257 864 1241.5 Q849 1226 828.5 1217 Q808 1208 785 1208 Q762 1208 741.5 1217 Q721 1226 705.5 1241.5 Q690 1257 681 1277.5 Q672 1298 672 1321 Z M271 1321 Q271 1344 280 1364.5 Q289 1385 304 1400.5 Q319 1416 339.5 1425 Q360 1434 383 1434 Q406 1434 426.5 1425 Q447 1416 462.5 1400.5 Q478 1385 487 1364.5 Q496 1344 496 1321 Q496 1298 487 1277.5 Q478 1257 462.5 1241.5 Q447 1226 426.5 1217 Q406 1208 383 1208 Q360 1208 339.5 1217 Q319 1226 304 1241.5 Q289 1257 280 1277.5 Q271 1298 271 1321 Z " />
<glyph glyph-name="emacron" unicode="&#x113;" horiz-adv-x="1153" d="M874 596 Q869 669 841.5 720 Q814 771 773.5 803 Q733 835 685 849.5 Q637 864 590 864 Q545 864 495.5 850 Q446 836 402.5 804 Q359 772 326.5 721 Q294 670 281 596 L874 596 Z M997 72 Q963 50 921 32.5 Q879 15 832.5 2.5 Q786 -10 736 -16.5 Q686 -23 637 -23 Q520 -23 420.5 14.5 Q321 52 248 121 Q175 190 133.5 287.5 Q92 385 92 504 Q92 623 132.5 720 Q173 817 242 886 Q311 955 402 992.5 Q493 1030 594 1030 Q686 1030 769.5 998 Q853 966 916 904.5 Q979 843 1016 752 Q1053 661 1053 543 Q1053 520 1051.5 493.5 Q1050 467 1047 449 L276 449 Q285 380 314.5 323.5 Q344 267 392 227 Q440 187 505 165 Q570 143 649 143 Q701 143 749 153 Q797 163 840.5 180 Q884 197 923 219.5 Q962 242 997 268 L997 72 Z M303 1391 L865 1391 L865 1251 L303 1251 L303 1391 Z " />
<glyph glyph-name="ebreve" unicode="&#x115;" horiz-adv-x="1153" d="M874 596 Q869 669 841.5 720 Q814 771 773.5 803 Q733 835 685 849.5 Q637 864 590 864 Q545 864 495.5 850 Q446 836 402.5 804 Q359 772 326.5 721 Q294 670 281 596 L874 596 Z M997 72 Q963 50 921 32.5 Q879 15 832.5 2.5 Q786 -10 736 -16.5 Q686 -23 637 -23 Q520 -23 420.5 14.5 Q321 52 248 121 Q175 190 133.5 287.5 Q92 385 92 504 Q92 623 132.5 720 Q173 817 242 886 Q311 955 402 992.5 Q493 1030 594 1030 Q686 1030 769.5 998 Q853 966 916 904.5 Q979 843 1016 752 Q1053 661 1053 543 Q1053 520 1051.5 493.5 Q1050 467 1047 449 L276 449 Q285 380 314.5 323.5 Q344 267 392 227 Q440 187 505 165 Q570 143 649 143 Q701 143 749 153 Q797 163 840.5 180 Q884 197 923 219.5 Q962 242 997 268 L997 72 Z M869 1475 Q867 1410 848.5 1354.5 Q830 1299 794.5 1258.5 Q759 1218 706.5 1194.5 Q654 1171 584 1171 Q513 1171 461 1194.5 Q409 1218 373.5 1258.5 Q338 1299 320 1354.5 Q302 1410 299 1475 L418 1475 Q421 1439 431 1404.5 Q441 1370 460.5 1344 Q480 1318 510 1302 Q540 1286 584 1286 Q628 1286 658 1302 Q688 1318 707.5 1344 Q727 1370 737 1404.5 Q747 1439 750 1475 L869 1475 Z " />
<glyph glyph-name="edotaccent" unicode="&#x117;" horiz-adv-x="1153" d="M874 596 Q869 669 841.5 720 Q814 771 773.5 803 Q733 835 685 849.5 Q637 864 590 864 Q545 864 495.5 850 Q446 836 402.5 804 Q359 772 326.5 721 Q294 670 281 596 L874 596 Z M997 72 Q963 50 921 32.5 Q879 15 832.5 2.5 Q786 -10 736 -16.5 Q686 -23 637 -23 Q520 -23 420.5 14.5 Q321 52 248 121 Q175 190 133.5 287.5 Q92 385 92 504 Q92 623 132.5 720 Q173 817 242 886 Q311 955 402 992.5 Q493 1030 594 1030 Q686 1030 769.5 998 Q853 966 916 904.5 Q979 843 1016 752 Q1053 661 1053 543 Q1053 520 1051.5 493.5 Q1050 467 1047 449 L276 449 Q285 380 314.5 323.5 Q344 267 392 227 Q440 187 505 165 Q570 143 649 143 Q701 143 749 153 Q797 163 840.5 180 Q884 197 923 219.5 Q962 242 997 268 L997 72 Z M586 1208 Q562 1208 541.5 1216.5 Q521 1225 506 1240.5 Q491 1256 482 1276.5 Q473 1297 473 1321 Q473 1345 482 1365.5 Q491 1386 506 1401 Q521 1416 541.5 1425 Q562 1434 586 1434 Q610 1434 630.5 1425 Q651 1416 666.5 1401 Q682 1386 690.5 1365.5 Q699 1345 699 1321 Q699 1297 690.5 1276.5 Q682 1256 666.5 1240.5 Q651 1225 630.5 1216.5 Q610 1208 586 1208 Z " />
<glyph glyph-name="eogonek" unicode="&#x119;" horiz-adv-x="1153" d="M874 596 Q869 669 841.5 720 Q814 771 773.5 803 Q733 835 685 849.5 Q637 864 590 864 Q545 864 495.5 850 Q446 836 402.5 804 Q359 772 326.5 721 Q294 670 281 596 L874 596 Z M694 -20 Q680 -22 665.5 -22.5 Q651 -23 637 -23 Q520 -23 420.5 14.5 Q321 52 248 121 Q175 190 133.5 287.5 Q92 385 92 504 Q92 623 132.5 720 Q173 817 242 886 Q311 955 402 992.5 Q493 1030 594 1030 Q686 1030 769.5 998 Q853 966 916 904.5 Q979 843 1016 752 Q1053 661 1053 543 Q1053 520 1051.5 493.5 Q1050 467 1047 449 L276 449 Q285 380 314.5 323.5 Q344 267 392 227 Q440 187 505 165 Q570 143 649 143 Q701 143 749 153 Q797 163 840.5 180 Q884 197 923 219.5 Q962 242 997 268 L997 72 Q923 26 874.5 -18 Q826 -62 796.5 -102 Q767 -142 755 -177.5 Q743 -213 743 -242 Q743 -291 770 -318.5 Q797 -346 850 -346 Q868 -346 888 -343.5 Q908 -341 928 -336 L928 -459 Q905 -465 876.5 -470 Q848 -475 817 -475 Q764 -475 721.5 -460 Q679 -445 649.5 -418 Q620 -391 604 -353 Q588 -315 588 -270 Q588 -210 616.5 -145 Q645 -80 696 -25 L694 -20 Z " />
<glyph glyph-name="gcircumflex" unicode="&#x11d;" horiz-adv-x="1214" d="M227 -201 Q300 -249 381 -277 Q462 -305 547 -305 Q619 -305 678 -284 Q737 -263 779.5 -223.5 Q822 -184 845 -127.5 Q868 -71 868 0 L868 74 L864 76 Q812 41 741 19.5 Q670 -2 590 -2 Q487 -2 397 35 Q307 72 240 138.5 Q173 205 134.5 298 Q96 391 96 502 Q96 608 131.5 704 Q167 800 234.5 872.5 Q302 945 398.5 987.5 Q495 1030 618 1030 Q697 1030 760 1014 Q823 998 874 973 L1053 1004 L1053 4 Q1053 -107 1017.5 -195 Q982 -283 916 -345 Q850 -407 756.5 -440 Q663 -473 547 -473 Q454 -473 372 -451 Q290 -429 227 -397 L227 -201 Z M868 797 Q820 826 752 846 Q684 866 614 866 Q538 866 477 838.5 Q416 811 373 763.5 Q330 716 306.5 652 Q283 588 283 514 Q283 438 307 373 Q331 308 375 261 Q419 214 480.5 187 Q542 160 616 160 Q686 160 754 182.5 Q822 205 868 242 L868 797 Z M290 1161 L616 1509 L624 1509 L950 1161 L768 1161 L618 1311 L468 1161 L290 1161 Z " />
<glyph glyph-name="gbreve" unicode="&#x11f;" horiz-adv-x="1214" d="M227 -201 Q300 -249 381 -277 Q462 -305 547 -305 Q619 -305 678 -284 Q737 -263 779.5 -223.5 Q822 -184 845 -127.5 Q868 -71 868 0 L868 74 L864 76 Q812 41 741 19.5 Q670 -2 590 -2 Q487 -2 397 35 Q307 72 240 138.5 Q173 205 134.5 298 Q96 391 96 502 Q96 608 131.5 704 Q167 800 234.5 872.5 Q302 945 398.5 987.5 Q495 1030 618 1030 Q697 1030 760 1014 Q823 998 874 973 L1053 1004 L1053 4 Q1053 -107 1017.5 -195 Q982 -283 916 -345 Q850 -407 756.5 -440 Q663 -473 547 -473 Q454 -473 372 -451 Q290 -429 227 -397 L227 -201 Z M868 797 Q820 826 752 846 Q684 866 614 866 Q538 866 477 838.5 Q416 811 373 763.5 Q330 716 306.5 652 Q283 588 283 514 Q283 438 307 373 Q331 308 375 261 Q419 214 480.5 187 Q542 160 616 160 Q686 160 754 182.5 Q822 205 868 242 L868 797 Z M905 1475 Q903 1410 884.5 1354.5 Q866 1299 830.5 1258.5 Q795 1218 742.5 1194.5 Q690 1171 620 1171 Q549 1171 497 1194.5 Q445 1218 409.5 1258.5 Q374 1299 356 1354.5 Q338 1410 335 1475 L454 1475 Q457 1439 467 1404.5 Q477 1370 496.5 1344 Q516 1318 546 1302 Q576 1286 620 1286 Q664 1286 694 1302 Q724 1318 743.5 1344 Q763 1370 773 1404.5 Q783 1439 786 1475 L905 1475 Z " />
<glyph glyph-name="gdotaccent" unicode="&#x121;" horiz-adv-x="1214" d="M227 -201 Q300 -249 381 -277 Q462 -305 547 -305 Q619 -305 678 -284 Q737 -263 779.5 -223.5 Q822 -184 845 -127.5 Q868 -71 868 0 L868 74 L864 76 Q812 41 741 19.5 Q670 -2 590 -2 Q487 -2 397 35 Q307 72 240 138.5 Q173 205 134.5 298 Q96 391 96 502 Q96 608 131.5 704 Q167 800 234.5 872.5 Q302 945 398.5 987.5 Q495 1030 618 1030 Q697 1030 760 1014 Q823 998 874 973 L1053 1004 L1053 4 Q1053 -107 1017.5 -195 Q982 -283 916 -345 Q850 -407 756.5 -440 Q663 -473 547 -473 Q454 -473 372 -451 Q290 -429 227 -397 L227 -201 Z M868 797 Q820 826 752 846 Q684 866 614 866 Q538 866 477 838.5 Q416 811 373 763.5 Q330 716 306.5 652 Q283 588 283 514 Q283 438 307 373 Q331 308 375 261 Q419 214 480.5 187 Q542 160 616 160 Q686 160 754 182.5 Q822 205 868 242 L868 797 Z M622 1208 Q598 1208 577.5 1216.5 Q557 1225 542 1240.5 Q527 1256 518 1276.5 Q509 1297 509 1321 Q509 1345 518 1365.5 Q527 1386 542 1401 Q557 1416 577.5 1425 Q598 1434 622 1434 Q646 1434 666.5 1425 Q687 1416 702.5 1401 Q718 1386 726.5 1365.5 Q735 1345 735 1321 Q735 1297 726.5 1276.5 Q718 1256 702.5 1240.5 Q687 1225 666.5 1216.5 Q646 1208 622 1208 Z " />
<glyph glyph-name="gcommaaccent" unicode="&#x123;" horiz-adv-x="1214" d="M227 -201 Q300 -249 381 -277 Q462 -305 547 -305 Q619 -305 678 -284 Q737 -263 779.5 -223.5 Q822 -184 845 -127.5 Q868 -71 868 0 L868 74 L864 76 Q812 41 741 19.5 Q670 -2 590 -2 Q487 -2 397 35 Q307 72 240 138.5 Q173 205 134.5 298 Q96 391 96 502 Q96 608 131.5 704 Q167 800 234.5 872.5 Q302 945 398.5 987.5 Q495 1030 618 1030 Q697 1030 760 1014 Q823 998 874 973 L1053 1004 L1053 4 Q1053 -107 1017.5 -195 Q982 -283 916 -345 Q850 -407 756.5 -440 Q663 -473 547 -473 Q454 -473 372 -451 Q290 -429 227 -397 L227 -201 Z M868 797 Q820 826 752 846 Q684 866 614 866 Q538 866 477 838.5 Q416 811 373 763.5 Q330 716 306.5 652 Q283 588 283 514 Q283 438 307 373 Q331 308 375 261 Q419 214 480.5 187 Q542 160 616 160 Q686 160 754 182.5 Q822 205 868 242 L868 797 Z M630 1585 L763 1585 L655 1139 L475 1139 L630 1585 Z " />
<glyph glyph-name="hcircumflex" unicode="&#x125;" horiz-adv-x="1212" d="M162 1565 L346 1565 L346 881 L350 879 Q416 945 506 987.5 Q596 1030 702 1030 Q786 1030 854.5 1002 Q923 974 971 920 Q992 896 1007.5 868.5 Q1023 841 1033.5 805.5 Q1044 770 1049.5 725.5 Q1055 681 1055 623 L1055 0 L870 0 L870 588 Q870 630 867.5 662 Q865 694 859 718 Q853 742 843.5 760 Q834 778 821 793 Q792 827 754 842.5 Q716 858 668 858 Q623 858 577.5 845 Q532 832 490 809.5 Q448 787 411 756 Q374 725 346 690 L346 0 L162 0 L162 1565 Z M-75 1670 L251 2018 L259 2018 L585 1670 L403 1670 L253 1820 L103 1670 L-75 1670 Z " />
<glyph glyph-name="hbar" unicode="&#x127;" horiz-adv-x="1212" d="M20 1352 L162 1352 L162 1565 L346 1565 L346 1352 L698 1352 L698 1202 L346 1202 L346 881 L350 879 Q416 945 506 987.5 Q596 1030 702 1030 Q786 1030 854.5 1002 Q923 974 971 920 Q992 896 1007.5 868.5 Q1023 841 1033.5 805.5 Q1044 770 1049.5 725.5 Q1055 681 1055 623 L1055 0 L870 0 L870 588 Q870 630 867.5 662 Q865 694 859 718 Q853 742 843.5 760 Q834 778 821 793 Q792 827 754 842.5 Q716 858 668 858 Q623 858 577.5 845 Q532 832 490 809.5 Q448 787 411 756 Q374 725 346 690 L346 0 L162 0 L162 1202 L20 1202 L20 1352 Z " />
<glyph glyph-name="igrave" unicode="&#xec;" horiz-adv-x="508" d="M162 1008 L346 1008 L346 0 L162 0 L162 1008 Z M9 1489 L216 1489 L374 1153 L235 1153 L9 1489 Z " />
<glyph glyph-name="iacute" unicode="&#xed;" horiz-adv-x="508" d="M162 1008 L346 1008 L346 0 L162 0 L162 1008 Z M276 1153 L136 1153 L294 1489 L501 1489 L276 1153 Z " />
<glyph glyph-name="icircumflex" unicode="&#xee;" horiz-adv-x="508" d="M162 1008 L346 1008 L346 0 L162 0 L162 1008 Z M-75 1161 L251 1509 L259 1509 L585 1161 L403 1161 L253 1311 L103 1161 L-75 1161 Z " />
<glyph glyph-name="itilde" unicode="&#x129;" horiz-adv-x="508" d="M162 1008 L346 1008 L346 0 L162 0 L162 1008 Z M-66 1360 Q-39 1398 4.5 1423 Q48 1448 103 1448 Q144 1448 183.5 1435 Q223 1422 269 1399 Q314 1376 344.5 1364 Q375 1352 407 1352 Q434 1352 458 1360.5 Q482 1369 502 1383 Q522 1397 539.5 1414.5 Q557 1432 572 1450 L577 1448 L577 1288 Q549 1250 505.5 1225 Q462 1200 407 1200 Q366 1200 326.5 1213 Q287 1226 241 1249 Q196 1272 166 1284 Q136 1296 103 1296 Q76 1296 52.5 1287.5 Q29 1279 8.5 1265 Q-12 1251 -29.5 1233.5 Q-47 1216 -62 1198 L-66 1200 L-66 1360 Z " />
<glyph glyph-name="idieresis" unicode="&#xef;" horiz-adv-x="508" d="M162 1008 L346 1008 L346 0 L162 0 L162 1008 Z M343 1321 Q343 1344 352 1364.5 Q361 1385 376.5 1400.5 Q392 1416 412.5 1425 Q433 1434 456 1434 Q479 1434 499.5 1425 Q520 1416 535 1400.5 Q550 1385 559 1364.5 Q568 1344 568 1321 Q568 1298 559 1277.5 Q550 1257 535 1241.5 Q520 1226 499.5 1217 Q479 1208 456 1208 Q433 1208 412.5 1217 Q392 1226 376.5 1241.5 Q361 1257 352 1277.5 Q343 1298 343 1321 Z M-58 1321 Q-58 1344 -49 1364.5 Q-40 1385 -25 1400.5 Q-10 1416 10.5 1425 Q31 1434 54 1434 Q77 1434 97.5 1425 Q118 1416 133.5 1400.5 Q149 1385 158 1364.5 Q167 1344 167 1321 Q167 1298 158 1277.5 Q149 1257 133.5 1241.5 Q118 1226 97.5 1217 Q77 1208 54 1208 Q31 1208 10.5 1217 Q-10 1226 -25 1241.5 Q-40 1257 -49 1277.5 Q-58 1298 -58 1321 Z " />
<glyph glyph-name="imacron" unicode="&#x12b;" horiz-adv-x="508" d="M162 1008 L346 1008 L346 0 L162 0 L162 1008 Z M-26 1391 L536 1391 L536 1251 L-26 1251 L-26 1391 Z " />
<glyph glyph-name="ibreve" unicode="&#x12d;" horiz-adv-x="508" d="M162 1008 L346 1008 L346 0 L162 0 L162 1008 Z M540 1475 Q538 1410 519.5 1354.5 Q501 1299 465.5 1258.5 Q430 1218 377.5 1194.5 Q325 1171 255 1171 Q184 1171 132 1194.5 Q80 1218 44.5 1258.5 Q9 1299 -9 1354.5 Q-27 1410 -30 1475 L89 1475 Q92 1439 102 1404.5 Q112 1370 131.5 1344 Q151 1318 181 1302 Q211 1286 255 1286 Q299 1286 329 1302 Q359 1318 378.5 1344 Q398 1370 408 1404.5 Q418 1439 421 1475 L540 1475 Z " />
<glyph glyph-name="iogonek" unicode="&#x12f;" horiz-adv-x="508" d="M162 1008 L346 1008 L346 0 Q278 -57 241.5 -120 Q205 -183 205 -240 Q205 -289 232 -316.5 Q259 -344 311 -344 Q327 -344 348 -341.5 Q369 -339 389 -334 L389 -457 Q366 -463 338 -468 Q310 -473 281 -473 Q227 -473 184 -457.5 Q141 -442 111 -413.5 Q81 -385 65 -346 Q49 -307 49 -260 Q49 -192 81.5 -124.5 Q114 -57 162 0 L162 1008 Z M135 1354 Q135 1378 144.5 1400 Q154 1422 170 1438 Q186 1454 207.5 1463.5 Q229 1473 254 1473 Q278 1473 300 1463.5 Q322 1454 338 1438 Q354 1422 363.5 1400 Q373 1378 373 1354 Q373 1329 363.5 1307.5 Q354 1286 338 1270 Q322 1254 300 1244.5 Q278 1235 254 1235 Q229 1235 207.5 1244.5 Q186 1254 170 1270 Q154 1286 144.5 1307.5 Q135 1329 135 1354 Z " />
<glyph glyph-name="dotlessi" unicode="&#x131;" horiz-adv-x="508" d="M162 1008 L346 1008 L346 0 L162 0 L162 1008 Z " />
<glyph glyph-name="ij" unicode="&#x133;" horiz-adv-x="1018" d="M162 1008 L346 1008 L346 0 L162 0 L162 1008 Z M135 1354 Q135 1378 144.5 1400 Q154 1422 170 1438 Q186 1454 207.5 1463.5 Q229 1473 254 1473 Q278 1473 300 1463.5 Q322 1454 338 1438 Q354 1422 363.5 1400 Q373 1378 373 1354 Q373 1329 363.5 1307.5 Q354 1286 338 1270 Q322 1254 300 1244.5 Q278 1235 254 1235 Q229 1235 207.5 1244.5 Q186 1254 170 1270 Q154 1286 144.5 1307.5 Q135 1329 135 1354 Z M672 1008 L856 1008 L856 -104 Q856 -161 851 -204 Q846 -247 836.5 -279.5 Q827 -312 814.5 -335.5 Q802 -359 787 -377 Q763 -405 734 -423.5 Q705 -442 673 -453 Q641 -464 607 -468.5 Q573 -473 539 -473 Q504 -473 474 -469 Q444 -465 418 -457 L418 -291 Q447 -297 477.5 -301 Q508 -305 533 -305 Q576 -305 603.5 -291 Q631 -277 646 -251.5 Q661 -226 666.5 -191 Q672 -156 672 -113 L672 1008 Z M645 1354 Q645 1378 654.5 1400 Q664 1422 680 1438 Q696 1454 717.5 1463.5 Q739 1473 764 1473 Q789 1473 810.5 1463.5 Q832 1454 848 1438 Q864 1422 873.5 1400 Q883 1378 883 1354 Q883 1329 873.5 1307.5 Q864 1286 848 1270 Q832 1254 810.5 1244.5 Q789 1235 764 1235 Q739 1235 717.5 1244.5 Q696 1254 680 1270 Q664 1286 654.5 1307.5 Q645 1329 645 1354 Z " />
<glyph glyph-name="dotlessj" unicode="&#x237;" horiz-adv-x="510" d="M164 1008 L348 1008 L348 -104 Q348 -161 343 -204 Q338 -247 328.5 -279.5 Q319 -312 306.5 -335.5 Q294 -359 279 -377 Q255 -405 226 -423.5 Q197 -442 165 -453 Q133 -464 99 -468.5 Q65 -473 31 -473 Q-4 -473 -34 -469 Q-64 -465 -90 -457 L-90 -291 Q-61 -297 -30.5 -301 Q0 -305 25 -305 Q68 -305 95.5 -291 Q123 -277 138 -251.5 Q153 -226 158.5 -191 Q164 -156 164 -113 L164 1008 Z " />
<glyph glyph-name="jcircumflex" unicode="&#x135;" horiz-adv-x="510" d="M164 1008 L348 1008 L348 -104 Q348 -161 343 -204 Q338 -247 328.5 -279.5 Q319 -312 306.5 -335.5 Q294 -359 279 -377 Q255 -405 226 -423.5 Q197 -442 165 -453 Q133 -464 99 -468.5 Q65 -473 31 -473 Q-4 -473 -34 -469 Q-64 -465 -90 -457 L-90 -291 Q-61 -297 -30.5 -301 Q0 -305 25 -305 Q68 -305 95.5 -291 Q123 -277 138 -251.5 Q153 -226 158.5 -191 Q164 -156 164 -113 L164 1008 Z M-69 1161 L257 1509 L265 1509 L591 1161 L409 1161 L259 1311 L109 1161 L-69 1161 Z " />
<glyph glyph-name="kcommaaccent" unicode="&#x137;" horiz-adv-x="1081" d="M162 1565 L346 1565 L346 565 L350 563 L801 1008 L1036 1008 L575 557 L1085 0 L844 0 L350 547 L346 545 L346 0 L162 0 L162 1565 Z M684 -111 L529 -557 L396 -557 L504 -111 L684 -111 Z " />
<glyph glyph-name="kgreenlandic" unicode="&#x138;" horiz-adv-x="1081" d="M162 1008 L346 1008 L346 565 L350 563 L801 1008 L1036 1008 L575 557 L1085 0 L844 0 L350 547 L346 545 L346 0 L162 0 L162 1008 Z " />
<glyph glyph-name="lacute" unicode="&#x13a;" horiz-adv-x="508" d="M162 1565 L346 1565 L346 0 L162 0 L162 1565 Z M290 1662 L150 1662 L308 1998 L515 1998 L290 1662 Z " />
<glyph glyph-name="lcaron" unicode="&#x13e;" horiz-adv-x="702" d="M162 1565 L346 1565 L346 0 L162 0 L162 1565 Z M759 1564 L604 1118 L471 1118 L579 1564 L759 1564 Z " />
<glyph glyph-name="lcommaaccent" unicode="&#x13c;" horiz-adv-x="508" d="M162 1565 L346 1565 L346 0 L162 0 L162 1565 Z M398 -111 L243 -557 L110 -557 L218 -111 L398 -111 Z " />
<glyph glyph-name="lslash" unicode="&#x142;" horiz-adv-x="532" d="M174 602 L4 487 L4 666 L174 780 L174 1565 L358 1565 L358 905 L528 1020 L528 842 L358 727 L358 0 L174 0 L174 602 Z " />
<glyph glyph-name="ldot" unicode="&#x140;" horiz-adv-x="717" d="M162 1565 L346 1565 L346 0 L162 0 L162 1565 Z M608 556 Q584 556 563.5 564.5 Q543 573 528 588.5 Q513 604 504 624.5 Q495 645 495 669 Q495 693 504 713.5 Q513 734 528 749 Q543 764 563.5 773 Q584 782 608 782 Q632 782 652.5 773 Q673 764 688.5 749 Q704 734 712.5 713.5 Q721 693 721 669 Q721 645 712.5 624.5 Q704 604 688.5 588.5 Q673 573 652.5 564.5 Q632 556 608 556 Z " />
<glyph glyph-name="nacute" unicode="&#x144;" horiz-adv-x="1212" d="M162 1008 L346 1008 L346 881 L350 879 Q416 945 506 987.5 Q596 1030 702 1030 Q786 1030 854.5 1002 Q923 974 971 920 Q992 896 1007.5 868.5 Q1023 841 1033.5 805.5 Q1044 770 1049.5 725.5 Q1055 681 1055 623 L1055 0 L870 0 L870 588 Q870 666 859 715 Q848 764 823 793 Q792 830 748 844 Q704 858 662 858 Q619 858 574.5 845 Q530 832 488 809.5 Q446 787 409.5 756.5 Q373 726 346 690 L346 0 L162 0 L162 1008 Z M627 1153 L487 1153 L645 1489 L852 1489 L627 1153 Z " />
<glyph glyph-name="ncaron" unicode="&#x148;" horiz-adv-x="1212" d="M162 1008 L346 1008 L346 881 L350 879 Q416 945 506 987.5 Q596 1030 702 1030 Q786 1030 854.5 1002 Q923 974 971 920 Q992 896 1007.5 868.5 Q1023 841 1033.5 805.5 Q1044 770 1049.5 725.5 Q1055 681 1055 623 L1055 0 L870 0 L870 588 Q870 666 859 715 Q848 764 823 793 Q792 830 748 844 Q704 858 662 858 Q619 858 574.5 845 Q530 832 488 809.5 Q446 787 409.5 756.5 Q373 726 346 690 L346 0 L162 0 L162 1008 Z M936 1481 L610 1133 L602 1133 L276 1481 L459 1481 L608 1331 L758 1481 L936 1481 Z " />
<glyph glyph-name="ntilde" unicode="&#xf1;" horiz-adv-x="1212" d="M162 1008 L346 1008 L346 881 L350 879 Q416 945 506 987.5 Q596 1030 702 1030 Q786 1030 854.5 1002 Q923 974 971 920 Q992 896 1007.5 868.5 Q1023 841 1033.5 805.5 Q1044 770 1049.5 725.5 Q1055 681 1055 623 L1055 0 L870 0 L870 588 Q870 666 859 715 Q848 764 823 793 Q792 830 748 844 Q704 858 662 858 Q619 858 574.5 845 Q530 832 488 809.5 Q446 787 409.5 756.5 Q373 726 346 690 L346 0 L162 0 L162 1008 Z M285 1360 Q312 1398 355.5 1423 Q399 1448 454 1448 Q495 1448 534.5 1435 Q574 1422 620 1399 Q665 1376 695.5 1364 Q726 1352 758 1352 Q785 1352 809 1360.5 Q833 1369 853 1383 Q873 1397 890.5 1414.5 Q908 1432 923 1450 L928 1448 L928 1288 Q900 1250 856.5 1225 Q813 1200 758 1200 Q717 1200 677.5 1213 Q638 1226 592 1249 Q547 1272 517 1284 Q487 1296 454 1296 Q427 1296 403.5 1287.5 Q380 1279 359.5 1265 Q339 1251 321.5 1233.5 Q304 1216 289 1198 L285 1200 L285 1360 Z " />
<glyph glyph-name="ncommaaccent" unicode="&#x146;" horiz-adv-x="1212" d="M162 1008 L346 1008 L346 881 L350 879 Q416 945 506 987.5 Q596 1030 702 1030 Q786 1030 854.5 1002 Q923 974 971 920 Q992 896 1007.5 868.5 Q1023 841 1033.5 805.5 Q1044 770 1049.5 725.5 Q1055 681 1055 623 L1055 0 L870 0 L870 588 Q870 666 859 715 Q848 764 823 793 Q792 830 748 844 Q704 858 662 858 Q619 858 574.5 845 Q530 832 488 809.5 Q446 787 409.5 756.5 Q373 726 346 690 L346 0 L162 0 L162 1008 Z M749 -111 L594 -557 L461 -557 L569 -111 L749 -111 Z " />
<glyph glyph-name="napostrophe" unicode="&#x149;" horiz-adv-x="1212" d="M162 1008 L346 1008 L346 881 L350 879 Q416 945 506 987.5 Q596 1030 702 1030 Q786 1030 854.5 1002 Q923 974 971 920 Q992 896 1007.5 868.5 Q1023 841 1033.5 805.5 Q1044 770 1049.5 725.5 Q1055 681 1055 623 L1055 0 L870 0 L870 588 Q870 666 859 715 Q848 764 823 793 Q792 830 748 844 Q704 858 662 858 Q619 858 574.5 845 Q530 832 488 809.5 Q446 787 409.5 756.5 Q373 726 346 690 L346 0 L162 0 L162 1008 Z M422 1581 L267 1135 L134 1135 L242 1581 L422 1581 Z " />
<glyph glyph-name="ograve" unicode="&#xf2;" horiz-adv-x="1249" d="M92 504 Q92 615 132 711.5 Q172 808 243.5 878.5 Q315 949 412.5 989.5 Q510 1030 625 1030 Q739 1030 836.5 989.5 Q934 949 1005.5 878.5 Q1077 808 1117 711.5 Q1157 615 1157 504 Q1157 393 1117 296.5 Q1077 200 1005.5 129 Q934 58 836.5 17.5 Q739 -23 625 -23 Q510 -23 412.5 17.5 Q315 58 243.5 129 Q172 200 132 296.5 Q92 393 92 504 Z M276 504 Q276 428 302.5 362.5 Q329 297 375.5 248.5 Q422 200 486 172.5 Q550 145 625 145 Q700 145 763.5 172.5 Q827 200 873.5 248.5 Q920 297 946.5 362.5 Q973 428 973 504 Q973 580 946.5 645.5 Q920 711 873.5 759 Q827 807 763.5 834.5 Q700 862 625 862 Q550 862 486 834.5 Q422 807 375.5 759 Q329 711 302.5 645.5 Q276 580 276 504 Z M379 1489 L586 1489 L744 1153 L605 1153 L379 1489 Z " />
<glyph glyph-name="oacute" unicode="&#xf3;" horiz-adv-x="1249" d="M92 504 Q92 615 132 711.5 Q172 808 243.5 878.5 Q315 949 412.5 989.5 Q510 1030 625 1030 Q739 1030 836.5 989.5 Q934 949 1005.5 878.5 Q1077 808 1117 711.5 Q1157 615 1157 504 Q1157 393 1117 296.5 Q1077 200 1005.5 129 Q934 58 836.5 17.5 Q739 -23 625 -23 Q510 -23 412.5 17.5 Q315 58 243.5 129 Q172 200 132 296.5 Q92 393 92 504 Z M276 504 Q276 428 302.5 362.5 Q329 297 375.5 248.5 Q422 200 486 172.5 Q550 145 625 145 Q700 145 763.5 172.5 Q827 200 873.5 248.5 Q920 297 946.5 362.5 Q973 428 973 504 Q973 580 946.5 645.5 Q920 711 873.5 759 Q827 807 763.5 834.5 Q700 862 625 862 Q550 862 486 834.5 Q422 807 375.5 759 Q329 711 302.5 645.5 Q276 580 276 504 Z M646 1153 L506 1153 L664 1489 L871 1489 L646 1153 Z " />
<glyph glyph-name="ocircumflex" unicode="&#xf4;" horiz-adv-x="1249" d="M92 504 Q92 615 132 711.5 Q172 808 243.5 878.5 Q315 949 412.5 989.5 Q510 1030 625 1030 Q739 1030 836.5 989.5 Q934 949 1005.5 878.5 Q1077 808 1117 711.5 Q1157 615 1157 504 Q1157 393 1117 296.5 Q1077 200 1005.5 129 Q934 58 836.5 17.5 Q739 -23 625 -23 Q510 -23 412.5 17.5 Q315 58 243.5 129 Q172 200 132 296.5 Q92 393 92 504 Z M276 504 Q276 428 302.5 362.5 Q329 297 375.5 248.5 Q422 200 486 172.5 Q550 145 625 145 Q700 145 763.5 172.5 Q827 200 873.5 248.5 Q920 297 946.5 362.5 Q973 428 973 504 Q973 580 946.5 645.5 Q920 711 873.5 759 Q827 807 763.5 834.5 Q700 862 625 862 Q550 862 486 834.5 Q422 807 375.5 759 Q329 711 302.5 645.5 Q276 580 276 504 Z M295 1161 L621 1509 L629 1509 L955 1161 L773 1161 L623 1311 L473 1161 L295 1161 Z " />
<glyph glyph-name="otilde" unicode="&#xf5;" horiz-adv-x="1249" d="M92 504 Q92 615 132 711.5 Q172 808 243.5 878.5 Q315 949 412.5 989.5 Q510 1030 625 1030 Q739 1030 836.5 989.5 Q934 949 1005.5 878.5 Q1077 808 1117 711.5 Q1157 615 1157 504 Q1157 393 1117 296.5 Q1077 200 1005.5 129 Q934 58 836.5 17.5 Q739 -23 625 -23 Q510 -23 412.5 17.5 Q315 58 243.5 129 Q172 200 132 296.5 Q92 393 92 504 Z M276 504 Q276 428 302.5 362.5 Q329 297 375.5 248.5 Q422 200 486 172.5 Q550 145 625 145 Q700 145 763.5 172.5 Q827 200 873.5 248.5 Q920 297 946.5 362.5 Q973 428 973 504 Q973 580 946.5 645.5 Q920 711 873.5 759 Q827 807 763.5 834.5 Q700 862 625 862 Q550 862 486 834.5 Q422 807 375.5 759 Q329 711 302.5 645.5 Q276 580 276 504 Z M304 1360 Q331 1398 374.5 1423 Q418 1448 473 1448 Q514 1448 553.5 1435 Q593 1422 639 1399 Q684 1376 714.5 1364 Q745 1352 777 1352 Q804 1352 828 1360.5 Q852 1369 872 1383 Q892 1397 909.5 1414.5 Q927 1432 942 1450 L947 1448 L947 1288 Q919 1250 875.5 1225 Q832 1200 777 1200 Q736 1200 696.5 1213 Q657 1226 611 1249 Q566 1272 536 1284 Q506 1296 473 1296 Q446 1296 422.5 1287.5 Q399 1279 378.5 1265 Q358 1251 340.5 1233.5 Q323 1216 308 1198 L304 1200 L304 1360 Z " />
<glyph glyph-name="odieresis" unicode="&#xf6;" horiz-adv-x="1249" d="M92 504 Q92 615 132 711.5 Q172 808 243.5 878.5 Q315 949 412.5 989.5 Q510 1030 625 1030 Q739 1030 836.5 989.5 Q934 949 1005.5 878.5 Q1077 808 1117 711.5 Q1157 615 1157 504 Q1157 393 1117 296.5 Q1077 200 1005.5 129 Q934 58 836.5 17.5 Q739 -23 625 -23 Q510 -23 412.5 17.5 Q315 58 243.5 129 Q172 200 132 296.5 Q92 393 92 504 Z M276 504 Q276 428 302.5 362.5 Q329 297 375.5 248.5 Q422 200 486 172.5 Q550 145 625 145 Q700 145 763.5 172.5 Q827 200 873.5 248.5 Q920 297 946.5 362.5 Q973 428 973 504 Q973 580 946.5 645.5 Q920 711 873.5 759 Q827 807 763.5 834.5 Q700 862 625 862 Q550 862 486 834.5 Q422 807 375.5 759 Q329 711 302.5 645.5 Q276 580 276 504 Z M713 1321 Q713 1344 722 1364.5 Q731 1385 746.5 1400.5 Q762 1416 782.5 1425 Q803 1434 826 1434 Q849 1434 869.5 1425 Q890 1416 905 1400.5 Q920 1385 929 1364.5 Q938 1344 938 1321 Q938 1298 929 1277.5 Q920 1257 905 1241.5 Q890 1226 869.5 1217 Q849 1208 826 1208 Q803 1208 782.5 1217 Q762 1226 746.5 1241.5 Q731 1257 722 1277.5 Q713 1298 713 1321 Z M312 1321 Q312 1344 321 1364.5 Q330 1385 345 1400.5 Q360 1416 380.5 1425 Q401 1434 424 1434 Q447 1434 467.5 1425 Q488 1416 503.5 1400.5 Q519 1385 528 1364.5 Q537 1344 537 1321 Q537 1298 528 1277.5 Q519 1257 503.5 1241.5 Q488 1226 467.5 1217 Q447 1208 424 1208 Q401 1208 380.5 1217 Q360 1226 345 1241.5 Q330 1257 321 1277.5 Q312 1298 312 1321 Z " />
<glyph glyph-name="omacron" unicode="&#x14d;" horiz-adv-x="1249" d="M92 504 Q92 615 132 711.5 Q172 808 243.5 878.5 Q315 949 412.5 989.5 Q510 1030 625 1030 Q739 1030 836.5 989.5 Q934 949 1005.5 878.5 Q1077 808 1117 711.5 Q1157 615 1157 504 Q1157 393 1117 296.5 Q1077 200 1005.5 129 Q934 58 836.5 17.5 Q739 -23 625 -23 Q510 -23 412.5 17.5 Q315 58 243.5 129 Q172 200 132 296.5 Q92 393 92 504 Z M276 504 Q276 428 302.5 362.5 Q329 297 375.5 248.5 Q422 200 486 172.5 Q550 145 625 145 Q700 145 763.5 172.5 Q827 200 873.5 248.5 Q920 297 946.5 362.5 Q973 428 973 504 Q973 580 946.5 645.5 Q920 711 873.5 759 Q827 807 763.5 834.5 Q700 862 625 862 Q550 862 486 834.5 Q422 807 375.5 759 Q329 711 302.5 645.5 Q276 580 276 504 Z M344 1391 L906 1391 L906 1251 L344 1251 L344 1391 Z " />
<glyph glyph-name="obreve" unicode="&#x14f;" horiz-adv-x="1249" d="M92 504 Q92 615 132 711.5 Q172 808 243.5 878.5 Q315 949 412.5 989.5 Q510 1030 625 1030 Q739 1030 836.5 989.5 Q934 949 1005.5 878.5 Q1077 808 1117 711.5 Q1157 615 1157 504 Q1157 393 1117 296.5 Q1077 200 1005.5 129 Q934 58 836.5 17.5 Q739 -23 625 -23 Q510 -23 412.5 17.5 Q315 58 243.5 129 Q172 200 132 296.5 Q92 393 92 504 Z M276 504 Q276 428 302.5 362.5 Q329 297 375.5 248.5 Q422 200 486 172.5 Q550 145 625 145 Q700 145 763.5 172.5 Q827 200 873.5 248.5 Q920 297 946.5 362.5 Q973 428 973 504 Q973 580 946.5 645.5 Q920 711 873.5 759 Q827 807 763.5 834.5 Q700 862 625 862 Q550 862 486 834.5 Q422 807 375.5 759 Q329 711 302.5 645.5 Q276 580 276 504 Z M910 1475 Q908 1410 889.5 1354.5 Q871 1299 835.5 1258.5 Q800 1218 747.5 1194.5 Q695 1171 625 1171 Q554 1171 502 1194.5 Q450 1218 414.5 1258.5 Q379 1299 361 1354.5 Q343 1410 340 1475 L459 1475 Q462 1439 472 1404.5 Q482 1370 501.5 1344 Q521 1318 551 1302 Q581 1286 625 1286 Q669 1286 699 1302 Q729 1318 748.5 1344 Q768 1370 778 1404.5 Q788 1439 791 1475 L910 1475 Z " />
<glyph glyph-name="ohungarumlaut" unicode="&#x151;" horiz-adv-x="1249" d="M92 504 Q92 615 132 711.5 Q172 808 243.5 878.5 Q315 949 412.5 989.5 Q510 1030 625 1030 Q739 1030 836.5 989.5 Q934 949 1005.5 878.5 Q1077 808 1117 711.5 Q1157 615 1157 504 Q1157 393 1117 296.5 Q1077 200 1005.5 129 Q934 58 836.5 17.5 Q739 -23 625 -23 Q510 -23 412.5 17.5 Q315 58 243.5 129 Q172 200 132 296.5 Q92 393 92 504 Z M276 504 Q276 428 302.5 362.5 Q329 297 375.5 248.5 Q422 200 486 172.5 Q550 145 625 145 Q700 145 763.5 172.5 Q827 200 873.5 248.5 Q920 297 946.5 362.5 Q973 428 973 504 Q973 580 946.5 645.5 Q920 711 873.5 759 Q827 807 763.5 834.5 Q700 862 625 862 Q550 862 486 834.5 Q422 807 375.5 759 Q329 711 302.5 645.5 Q276 580 276 504 Z M820 1489 L981 1489 L770 1153 L650 1153 L820 1489 Z M537 1489 L699 1489 L488 1153 L367 1153 L537 1489 Z " />
<glyph glyph-name="oslash" unicode="&#xf8;" horiz-adv-x="1249" d="M807 813 Q767 836 721.5 849 Q676 862 625 862 Q550 862 486 834.5 Q422 807 375.5 759 Q329 711 302.5 645.5 Q276 580 276 504 Q276 441 294 385.5 Q312 330 344 285 L807 813 Z M225 147 Q162 217 127 309 Q92 401 92 504 Q92 615 132 711.5 Q172 808 243.5 878.5 Q315 949 412.5 989.5 Q510 1030 625 1030 Q710 1030 784.5 1008 Q859 986 922 944 L1024 1061 L1124 975 L1024 860 Q1087 791 1122 699 Q1157 607 1157 504 Q1157 393 1117 296.5 Q1077 200 1005.5 129 Q934 58 836.5 17.5 Q739 -23 625 -23 Q540 -23 465.5 -1 Q391 21 328 63 L225 -53 L125 33 L225 147 Z M442 195 Q483 172 528.5 158.5 Q574 145 625 145 Q700 145 763.5 172.5 Q827 200 873.5 248.5 Q920 297 946.5 362.5 Q973 428 973 504 Q973 567 955 622.5 Q937 678 905 723 L442 195 Z " />
<glyph glyph-name="oslashacute" unicode="&#x1ff;" horiz-adv-x="1249" d="M807 813 Q767 836 721.5 849 Q676 862 625 862 Q550 862 486 834.5 Q422 807 375.5 759 Q329 711 302.5 645.5 Q276 580 276 504 Q276 441 294 385.5 Q312 330 344 285 L807 813 Z M225 147 Q162 217 127 309 Q92 401 92 504 Q92 615 132 711.5 Q172 808 243.5 878.5 Q315 949 412.5 989.5 Q510 1030 625 1030 Q710 1030 784.5 1008 Q859 986 922 944 L1024 1061 L1124 975 L1024 860 Q1087 791 1122 699 Q1157 607 1157 504 Q1157 393 1117 296.5 Q1077 200 1005.5 129 Q934 58 836.5 17.5 Q739 -23 625 -23 Q540 -23 465.5 -1 Q391 21 328 63 L225 -53 L125 33 L225 147 Z M442 195 Q483 172 528.5 158.5 Q574 145 625 145 Q700 145 763.5 172.5 Q827 200 873.5 248.5 Q920 297 946.5 362.5 Q973 428 973 504 Q973 567 955 622.5 Q937 678 905 723 L442 195 Z M646 1153 L506 1153 L664 1489 L871 1489 L646 1153 Z " />
<glyph glyph-name="oe" unicode="&#x153;" horiz-adv-x="2011" d="M1733 596 Q1727 657 1704.5 706.5 Q1682 756 1645.5 791 Q1609 826 1560.5 845 Q1512 864 1454 864 Q1404 864 1354.5 848.5 Q1305 833 1263 800.5 Q1221 768 1191 717 Q1161 666 1149 596 L1733 596 Z M623 145 Q696 145 759 172 Q822 199 867.5 247 Q913 295 939 360.5 Q965 426 965 502 Q965 579 939 645 Q913 711 866.5 759 Q820 807 756.5 834.5 Q693 862 618 862 Q544 862 481 835 Q418 808 372.5 760 Q327 712 301.5 647 Q276 582 276 506 Q276 429 302 363 Q328 297 374.5 248.5 Q421 200 484.5 172.5 Q548 145 623 145 Z M1055 803 Q1087 857 1131 899 Q1175 941 1228 970 Q1281 999 1340.5 1014.5 Q1400 1030 1464 1030 Q1555 1030 1636.5 997.5 Q1718 965 1779 902.5 Q1840 840 1875.5 750 Q1911 660 1911 545 Q1911 522 1909.5 494.5 Q1908 467 1905 449 L1147 449 Q1158 371 1191 313.5 Q1224 256 1273 218 Q1322 180 1383 161.5 Q1444 143 1511 143 Q1562 143 1609.5 153 Q1657 163 1700.5 180 Q1744 197 1782.5 219.5 Q1821 242 1855 268 L1855 72 Q1821 50 1779 32.5 Q1737 15 1690.5 2.5 Q1644 -10 1594.5 -16.5 Q1545 -23 1497 -23 Q1425 -23 1359.5 -7.5 Q1294 8 1238 37 Q1182 66 1136 108.5 Q1090 151 1057 205 L1053 205 Q984 100 872.5 38.5 Q761 -23 618 -23 Q504 -23 408 17.5 Q312 58 241.5 128.5 Q171 199 131.5 295 Q92 391 92 502 Q92 614 132 710.5 Q172 807 242.5 878 Q313 949 410 989.5 Q507 1030 621 1030 Q691 1030 754 1014 Q817 998 872 968.5 Q927 939 972 897 Q1017 855 1051 803 L1055 803 Z " />
<glyph glyph-name="racute" unicode="&#x155;" horiz-adv-x="752" d="M162 1008 L346 1008 L346 860 L350 858 Q403 932 481 974 Q559 1016 649 1016 Q665 1016 681.5 1014.5 Q698 1013 715 1008 L715 825 Q677 834 643 834 Q540 834 467 785.5 Q394 737 346 655 L346 0 L162 0 L162 1008 Z M397 1153 L257 1153 L415 1489 L622 1489 L397 1153 Z " />
<glyph glyph-name="rcaron" unicode="&#x159;" horiz-adv-x="752" d="M162 1008 L346 1008 L346 860 L350 858 Q403 932 481 974 Q559 1016 649 1016 Q665 1016 681.5 1014.5 Q698 1013 715 1008 L715 825 Q677 834 643 834 Q540 834 467 785.5 Q394 737 346 655 L346 0 L162 0 L162 1008 Z M706 1481 L380 1133 L372 1133 L46 1481 L229 1481 L378 1331 L528 1481 L706 1481 Z " />
<glyph glyph-name="rcommaaccent" unicode="&#x157;" horiz-adv-x="752" d="M162 1008 L346 1008 L346 860 L350 858 Q403 932 481 974 Q559 1016 649 1016 Q665 1016 681.5 1014.5 Q698 1013 715 1008 L715 825 Q677 834 643 834 Q540 834 467 785.5 Q394 737 346 655 L346 0 L162 0 L162 1008 Z M439 -111 L284 -557 L151 -557 L259 -111 L439 -111 Z " />
<glyph glyph-name="sacute" unicode="&#x15b;" horiz-adv-x="991" d="M127 258 Q169 229 216.5 207 Q264 185 313 171 Q362 157 410.5 150 Q459 143 504 143 Q602 143 660.5 176.5 Q719 210 719 281 Q719 324 695.5 349.5 Q672 375 633 390.5 Q594 406 543.5 414.5 Q493 423 438 434 Q370 447 309.5 466 Q249 485 204 517.5 Q159 550 132.5 599.5 Q106 649 106 723 Q106 798 136 855.5 Q166 913 218.5 952 Q271 991 343.5 1010.5 Q416 1030 502 1030 Q547 1030 593 1024.5 Q639 1019 684 1008 Q729 997 771 981.5 Q813 966 848 946 L848 762 Q807 787 762.5 806 Q718 825 672.5 838 Q627 851 582 857.5 Q537 864 496 864 Q451 864 414 856 Q377 848 350 832.5 Q323 817 308 793 Q293 769 293 737 Q293 696 316.5 673 Q340 650 378.5 636.5 Q417 623 466.5 615 Q516 607 569 596 Q640 582 701.5 562 Q763 542 808 508.5 Q853 475 879 424 Q905 373 905 297 Q905 213 871.5 152.5 Q838 92 782 53 Q726 14 652.5 -4.5 Q579 -23 498 -23 Q450 -23 400 -17.5 Q350 -12 301.5 -1 Q253 10 208.5 26 Q164 42 127 63 L127 258 Z M520 1153 L380 1153 L538 1489 L745 1489 L520 1153 Z " />
<glyph glyph-name="scircumflex" unicode="&#x15d;" horiz-adv-x="991" d="M127 258 Q169 229 216.5 207 Q264 185 313 171 Q362 157 410.5 150 Q459 143 504 143 Q602 143 660.5 176.5 Q719 210 719 281 Q719 324 695.5 349.5 Q672 375 633 390.5 Q594 406 543.5 414.5 Q493 423 438 434 Q370 447 309.5 466 Q249 485 204 517.5 Q159 550 132.5 599.5 Q106 649 106 723 Q106 798 136 855.5 Q166 913 218.5 952 Q271 991 343.5 1010.5 Q416 1030 502 1030 Q547 1030 593 1024.5 Q639 1019 684 1008 Q729 997 771 981.5 Q813 966 848 946 L848 762 Q807 787 762.5 806 Q718 825 672.5 838 Q627 851 582 857.5 Q537 864 496 864 Q451 864 414 856 Q377 848 350 832.5 Q323 817 308 793 Q293 769 293 737 Q293 696 316.5 673 Q340 650 378.5 636.5 Q417 623 466.5 615 Q516 607 569 596 Q640 582 701.5 562 Q763 542 808 508.5 Q853 475 879 424 Q905 373 905 297 Q905 213 871.5 152.5 Q838 92 782 53 Q726 14 652.5 -4.5 Q579 -23 498 -23 Q450 -23 400 -17.5 Q350 -12 301.5 -1 Q253 10 208.5 26 Q164 42 127 63 L127 258 Z M169 1161 L495 1509 L503 1509 L829 1161 L647 1161 L497 1311 L347 1161 L169 1161 Z " />
<glyph glyph-name="scaron" unicode="&#x161;" horiz-adv-x="991" d="M127 258 Q169 229 216.5 207 Q264 185 313 171 Q362 157 410.5 150 Q459 143 504 143 Q602 143 660.5 176.5 Q719 210 719 281 Q719 324 695.5 349.5 Q672 375 633 390.5 Q594 406 543.5 414.5 Q493 423 438 434 Q370 447 309.5 466 Q249 485 204 517.5 Q159 550 132.5 599.5 Q106 649 106 723 Q106 798 136 855.5 Q166 913 218.5 952 Q271 991 343.5 1010.5 Q416 1030 502 1030 Q547 1030 593 1024.5 Q639 1019 684 1008 Q729 997 771 981.5 Q813 966 848 946 L848 762 Q807 787 762.5 806 Q718 825 672.5 838 Q627 851 582 857.5 Q537 864 496 864 Q451 864 414 856 Q377 848 350 832.5 Q323 817 308 793 Q293 769 293 737 Q293 696 316.5 673 Q340 650 378.5 636.5 Q417 623 466.5 615 Q516 607 569 596 Q640 582 701.5 562 Q763 542 808 508.5 Q853 475 879 424 Q905 373 905 297 Q905 213 871.5 152.5 Q838 92 782 53 Q726 14 652.5 -4.5 Q579 -23 498 -23 Q450 -23 400 -17.5 Q350 -12 301.5 -1 Q253 10 208.5 26 Q164 42 127 63 L127 258 Z M829 1481 L503 1133 L495 1133 L169 1481 L352 1481 L501 1331 L651 1481 L829 1481 Z " />
<glyph glyph-name="scedilla" unicode="&#x15f;" horiz-adv-x="991" d="M848 762 Q807 787 762.5 806 Q718 825 672.5 838 Q627 851 582 857.5 Q537 864 496 864 Q451 864 414 856 Q377 848 350 832.5 Q323 817 308 793 Q293 769 293 737 Q293 696 316.5 673 Q340 650 378.5 636.5 Q417 623 466.5 615 Q516 607 569 596 Q640 582 701.5 562 Q763 542 808 508.5 Q853 475 879 424 Q905 373 905 297 Q905 216 874.5 157.5 Q844 99 792.5 60.5 Q741 22 672.5 1.5 Q604 -19 528 -23 L508 -88 Q591 -107 640.5 -151 Q690 -195 690 -272 Q690 -313 675 -346.5 Q660 -380 632 -403.5 Q604 -427 564 -440 Q524 -453 475 -453 Q427 -453 384.5 -442 Q342 -431 311 -416 L342 -311 Q376 -328 409 -339 Q442 -350 473 -350 Q513 -350 542 -332 Q571 -314 571 -279 Q571 -250 552 -230.5 Q533 -211 504.5 -199.5 Q476 -188 443.5 -183 Q411 -178 383 -176 L430 -20 Q349 -12 269 8.5 Q189 29 127 63 L127 258 Q169 229 216.5 207 Q264 185 313 171 Q362 157 410.5 150 Q459 143 504 143 Q602 143 660.5 176.5 Q719 210 719 281 Q719 324 695.5 349.5 Q672 375 633 390.5 Q594 406 543.5 414.5 Q493 423 438 434 Q370 447 309.5 466 Q249 485 204 517.5 Q159 550 132.5 599.5 Q106 649 106 723 Q106 798 136 855.5 Q166 913 218.5 952 Q271 991 343.5 1010.5 Q416 1030 502 1030 Q547 1030 593 1024.5 Q639 1019 684 1008 Q729 997 771 981.5 Q813 966 848 946 L848 762 Z " />
<glyph glyph-name="scommaaccent" unicode="&#x219;" horiz-adv-x="991" d="M127 258 Q169 229 216.5 207 Q264 185 313 171 Q362 157 410.5 150 Q459 143 504 143 Q602 143 660.5 176.5 Q719 210 719 281 Q719 324 695.5 349.5 Q672 375 633 390.5 Q594 406 543.5 414.5 Q493 423 438 434 Q370 447 309.5 466 Q249 485 204 517.5 Q159 550 132.5 599.5 Q106 649 106 723 Q106 798 136 855.5 Q166 913 218.5 952 Q271 991 343.5 1010.5 Q416 1030 502 1030 Q547 1030 593 1024.5 Q639 1019 684 1008 Q729 997 771 981.5 Q813 966 848 946 L848 762 Q807 787 762.5 806 Q718 825 672.5 838 Q627 851 582 857.5 Q537 864 496 864 Q451 864 414 856 Q377 848 350 832.5 Q323 817 308 793 Q293 769 293 737 Q293 696 316.5 673 Q340 650 378.5 636.5 Q417 623 466.5 615 Q516 607 569 596 Q640 582 701.5 562 Q763 542 808 508.5 Q853 475 879 424 Q905 373 905 297 Q905 213 871.5 152.5 Q838 92 782 53 Q726 14 652.5 -4.5 Q579 -23 498 -23 Q450 -23 400 -17.5 Q350 -12 301.5 -1 Q253 10 208.5 26 Q164 42 127 63 L127 258 Z M635 -111 L480 -557 L347 -557 L455 -111 L635 -111 Z " />
<glyph glyph-name="germandbls" unicode="&#xdf;" horiz-adv-x="1262" d="M162 1182 Q162 1285 200 1366 Q238 1447 307 1499 Q363 1542 436 1564.5 Q509 1587 596 1587 Q687 1587 766.5 1562.5 Q846 1538 905 1490.5 Q964 1443 998 1372.5 Q1032 1302 1032 1210 Q1032 1104 986 1027 Q940 950 858 911 L858 907 Q936 883 996 842 Q1056 801 1097 745 Q1138 689 1159 621 Q1180 553 1180 475 Q1180 366 1140 274.5 Q1100 183 1030 117 Q960 51 864 14 Q768 -23 657 -23 Q608 -23 567 -16.5 Q526 -10 494 -2 L494 172 Q531 158 573.5 151.5 Q616 145 653 145 Q730 145 792.5 169.5 Q855 194 899 237.5 Q943 281 967 340.5 Q991 400 991 471 Q991 543 966 603 Q941 663 895 705.5 Q849 748 783.5 771.5 Q718 795 637 795 L551 795 L551 956 L621 956 Q674 956 716 974 Q758 992 787.5 1023.5 Q817 1055 832.5 1099 Q848 1143 848 1194 Q848 1249 830.5 1291 Q813 1333 780 1361.5 Q747 1390 700.5 1404.5 Q654 1419 596 1419 Q540 1419 498.5 1406 Q457 1393 426 1368 Q388 1337 367 1290.5 Q346 1244 346 1184 L346 0 L162 0 L162 1182 Z " />
<glyph glyph-name="tcaron" unicode="&#x165;" horiz-adv-x="805" d="M393 842 L393 412 Q393 339 403.5 291 Q414 243 438 211 Q464 176 502.5 161.5 Q541 147 586 147 Q626 147 667.5 157.5 Q709 168 743 188 L743 18 Q703 0 653.5 -11.5 Q604 -23 551 -23 Q516 -23 481 -17.5 Q446 -12 412.5 0.5 Q379 13 348 33.5 Q317 54 291 84 Q250 131 230.5 200 Q211 269 211 377 L211 842 L10 842 L8 846 L389 1264 L393 1262 L393 1008 L743 1008 L743 842 L393 842 Z M831 1581 L676 1135 L543 1135 L651 1581 L831 1581 Z " />
<glyph glyph-name="tcommaaccent" unicode="&#x163;" horiz-adv-x="805" d="M393 842 L393 412 Q393 339 403.5 291 Q414 243 438 211 Q464 176 502.5 161.5 Q541 147 586 147 Q626 147 667.5 157.5 Q709 168 743 188 L743 18 Q703 0 653.5 -11.5 Q604 -23 551 -23 Q532 -23 513 -21 Q494 -19 475 -16 L453 -88 Q536 -107 585.5 -151 Q635 -195 635 -272 Q635 -313 620 -346.5 Q605 -380 577 -403.5 Q549 -427 509 -440 Q469 -453 420 -453 Q372 -453 329.5 -442 Q287 -431 256 -416 L287 -311 Q321 -328 354 -339 Q387 -350 418 -350 Q458 -350 487 -332 Q516 -314 516 -279 Q516 -250 497 -230.5 Q478 -211 449.5 -199.5 Q421 -188 388 -183 Q355 -178 328 -176 L385 12 Q359 25 335.5 42 Q312 59 291 84 Q250 131 230.5 200 Q211 269 211 377 L211 842 L10 842 L8 846 L389 1264 L393 1262 L393 1008 L743 1008 L743 842 L393 842 Z " />
<glyph glyph-name="uni021B" unicode="&#x21b;" horiz-adv-x="805" d="M393 842 L393 412 Q393 339 403.5 291 Q414 243 438 211 Q464 176 502.5 161.5 Q541 147 586 147 Q626 147 667.5 157.5 Q709 168 743 188 L743 18 Q703 0 653.5 -11.5 Q604 -23 551 -23 Q516 -23 481 -17.5 Q446 -12 412.5 0.5 Q379 13 348 33.5 Q317 54 291 84 Q250 131 230.5 200 Q211 269 211 377 L211 842 L10 842 L8 846 L389 1264 L393 1262 L393 1008 L743 1008 L743 842 L393 842 Z M566 -111 L411 -557 L278 -557 L386 -111 L566 -111 Z " />
<glyph glyph-name="tbar" unicode="&#x167;" horiz-adv-x="805" d="M393 842 L393 633 L743 633 L743 467 L393 467 L393 412 Q393 339 403.5 291 Q414 243 438 211 Q464 176 502.5 161.5 Q541 147 586 147 Q626 147 667.5 157.5 Q709 168 743 188 L743 18 Q703 0 653.5 -11.5 Q604 -23 551 -23 Q516 -23 481 -17.5 Q446 -12 412.5 0.5 Q379 13 348 33.5 Q317 54 291 84 Q250 131 230.5 200 Q211 269 211 377 L211 467 L10 467 L8 471 L211 692 L211 842 L10 842 L8 846 L389 1264 L393 1262 L393 1008 L743 1008 L743 842 L393 842 Z " />
<glyph glyph-name="ugrave" unicode="&#xf9;" horiz-adv-x="1212" d="M862 129 Q796 63 707.5 20 Q619 -23 514 -23 Q437 -23 364 4 Q291 31 240 90 Q196 141 177 212.5 Q158 284 158 391 L158 1008 L342 1008 L342 426 Q342 384 344.5 352 Q347 320 353 295 Q359 270 368.5 251 Q378 232 391 217 Q422 179 464 163 Q506 147 551 147 Q598 147 643 161 Q688 175 728.5 199 Q769 223 804 254 Q839 285 866 319 L866 1008 L1051 1008 L1051 0 L866 0 L866 127 L862 129 Z M360 1489 L567 1489 L725 1153 L586 1153 L360 1489 Z " />
<glyph glyph-name="uacute" unicode="&#xfa;" horiz-adv-x="1212" d="M862 129 Q796 63 707.5 20 Q619 -23 514 -23 Q437 -23 364 4 Q291 31 240 90 Q196 141 177 212.5 Q158 284 158 391 L158 1008 L342 1008 L342 426 Q342 384 344.5 352 Q347 320 353 295 Q359 270 368.5 251 Q378 232 391 217 Q422 179 464 163 Q506 147 551 147 Q598 147 643 161 Q688 175 728.5 199 Q769 223 804 254 Q839 285 866 319 L866 1008 L1051 1008 L1051 0 L866 0 L866 127 L862 129 Z M627 1153 L487 1153 L645 1489 L852 1489 L627 1153 Z " />
<glyph glyph-name="ucircumflex" unicode="&#xfb;" horiz-adv-x="1212" d="M862 129 Q796 63 707.5 20 Q619 -23 514 -23 Q437 -23 364 4 Q291 31 240 90 Q196 141 177 212.5 Q158 284 158 391 L158 1008 L342 1008 L342 426 Q342 384 344.5 352 Q347 320 353 295 Q359 270 368.5 251 Q378 232 391 217 Q422 179 464 163 Q506 147 551 147 Q598 147 643 161 Q688 175 728.5 199 Q769 223 804 254 Q839 285 866 319 L866 1008 L1051 1008 L1051 0 L866 0 L866 127 L862 129 Z M276 1161 L602 1509 L610 1509 L936 1161 L754 1161 L604 1311 L454 1161 L276 1161 Z " />
<glyph glyph-name="utilde" unicode="&#x169;" horiz-adv-x="1212" d="M862 129 Q796 63 707.5 20 Q619 -23 514 -23 Q437 -23 364 4 Q291 31 240 90 Q196 141 177 212.5 Q158 284 158 391 L158 1008 L342 1008 L342 426 Q342 384 344.5 352 Q347 320 353 295 Q359 270 368.5 251 Q378 232 391 217 Q422 179 464 163 Q506 147 551 147 Q598 147 643 161 Q688 175 728.5 199 Q769 223 804 254 Q839 285 866 319 L866 1008 L1051 1008 L1051 0 L866 0 L866 127 L862 129 Z M285 1360 Q312 1398 355.5 1423 Q399 1448 454 1448 Q495 1448 534.5 1435 Q574 1422 620 1399 Q665 1376 695.5 1364 Q726 1352 758 1352 Q785 1352 809 1360.5 Q833 1369 853 1383 Q873 1397 890.5 1414.5 Q908 1432 923 1450 L928 1448 L928 1288 Q900 1250 856.5 1225 Q813 1200 758 1200 Q717 1200 677.5 1213 Q638 1226 592 1249 Q547 1272 517 1284 Q487 1296 454 1296 Q427 1296 403.5 1287.5 Q380 1279 359.5 1265 Q339 1251 321.5 1233.5 Q304 1216 289 1198 L285 1200 L285 1360 Z " />
<glyph glyph-name="udieresis" unicode="&#xfc;" horiz-adv-x="1212" d="M862 129 Q796 63 707.5 20 Q619 -23 514 -23 Q437 -23 364 4 Q291 31 240 90 Q196 141 177 212.5 Q158 284 158 391 L158 1008 L342 1008 L342 426 Q342 384 344.5 352 Q347 320 353 295 Q359 270 368.5 251 Q378 232 391 217 Q422 179 464 163 Q506 147 551 147 Q598 147 643 161 Q688 175 728.5 199 Q769 223 804 254 Q839 285 866 319 L866 1008 L1051 1008 L1051 0 L866 0 L866 127 L862 129 Z M694 1321 Q694 1344 703 1364.5 Q712 1385 727.5 1400.5 Q743 1416 763.5 1425 Q784 1434 807 1434 Q830 1434 850.5 1425 Q871 1416 886 1400.5 Q901 1385 910 1364.5 Q919 1344 919 1321 Q919 1298 910 1277.5 Q901 1257 886 1241.5 Q871 1226 850.5 1217 Q830 1208 807 1208 Q784 1208 763.5 1217 Q743 1226 727.5 1241.5 Q712 1257 703 1277.5 Q694 1298 694 1321 Z M293 1321 Q293 1344 302 1364.5 Q311 1385 326 1400.5 Q341 1416 361.5 1425 Q382 1434 405 1434 Q428 1434 448.5 1425 Q469 1416 484.5 1400.5 Q500 1385 509 1364.5 Q518 1344 518 1321 Q518 1298 509 1277.5 Q500 1257 484.5 1241.5 Q469 1226 448.5 1217 Q428 1208 405 1208 Q382 1208 361.5 1217 Q341 1226 326 1241.5 Q311 1257 302 1277.5 Q293 1298 293 1321 Z " />
<glyph glyph-name="umacron" unicode="&#x16b;" horiz-adv-x="1212" d="M862 129 Q796 63 707.5 20 Q619 -23 514 -23 Q437 -23 364 4 Q291 31 240 90 Q196 141 177 212.5 Q158 284 158 391 L158 1008 L342 1008 L342 426 Q342 384 344.5 352 Q347 320 353 295 Q359 270 368.5 251 Q378 232 391 217 Q422 179 464 163 Q506 147 551 147 Q598 147 643 161 Q688 175 728.5 199 Q769 223 804 254 Q839 285 866 319 L866 1008 L1051 1008 L1051 0 L866 0 L866 127 L862 129 Z M325 1391 L887 1391 L887 1251 L325 1251 L325 1391 Z " />
<glyph glyph-name="ubreve" unicode="&#x16d;" horiz-adv-x="1212" d="M862 129 Q796 63 707.5 20 Q619 -23 514 -23 Q437 -23 364 4 Q291 31 240 90 Q196 141 177 212.5 Q158 284 158 391 L158 1008 L342 1008 L342 426 Q342 384 344.5 352 Q347 320 353 295 Q359 270 368.5 251 Q378 232 391 217 Q422 179 464 163 Q506 147 551 147 Q598 147 643 161 Q688 175 728.5 199 Q769 223 804 254 Q839 285 866 319 L866 1008 L1051 1008 L1051 0 L866 0 L866 127 L862 129 Z M891 1475 Q889 1410 870.5 1354.5 Q852 1299 816.5 1258.5 Q781 1218 728.5 1194.5 Q676 1171 606 1171 Q535 1171 483 1194.5 Q431 1218 395.5 1258.5 Q360 1299 342 1354.5 Q324 1410 321 1475 L440 1475 Q443 1439 453 1404.5 Q463 1370 482.5 1344 Q502 1318 532 1302 Q562 1286 606 1286 Q650 1286 680 1302 Q710 1318 729.5 1344 Q749 1370 759 1404.5 Q769 1439 772 1475 L891 1475 Z " />
<glyph glyph-name="uring" unicode="&#x16f;" horiz-adv-x="1212" d="M862 129 Q796 63 707.5 20 Q619 -23 514 -23 Q437 -23 364 4 Q291 31 240 90 Q196 141 177 212.5 Q158 284 158 391 L158 1008 L342 1008 L342 426 Q342 384 344.5 352 Q347 320 353 295 Q359 270 368.5 251 Q378 232 391 217 Q422 179 464 163 Q506 147 551 147 Q598 147 643 161 Q688 175 728.5 199 Q769 223 804 254 Q839 285 866 319 L866 1008 L1051 1008 L1051 0 L866 0 L866 127 L862 129 Z M606 1128 Q555 1128 511.5 1146 Q468 1164 435.5 1195.5 Q403 1227 384.5 1269.5 Q366 1312 366 1362 Q366 1412 384.5 1454.5 Q403 1497 435.5 1528.5 Q468 1560 511.5 1577.5 Q555 1595 606 1595 Q657 1595 700.5 1577.5 Q744 1560 776.5 1528.5 Q809 1497 827.5 1454.5 Q846 1412 846 1362 Q846 1312 827.5 1269.5 Q809 1227 776.5 1195.5 Q744 1164 700.5 1146 Q657 1128 606 1128 Z M606 1231 Q636 1231 660 1241.5 Q684 1252 700.5 1269.5 Q717 1287 726 1311 Q735 1335 735 1362 Q735 1389 726 1413 Q717 1437 700.5 1454.5 Q684 1472 660 1482.5 Q636 1493 606 1493 Q576 1493 552 1482.5 Q528 1472 511.5 1454.5 Q495 1437 486 1413 Q477 1389 477 1362 Q477 1335 486 1311 Q495 1287 511.5 1269.5 Q528 1252 552 1241.5 Q576 1231 606 1231 Z " />
<glyph glyph-name="uhungarumlaut" unicode="&#x171;" horiz-adv-x="1212" d="M862 129 Q796 63 707.5 20 Q619 -23 514 -23 Q437 -23 364 4 Q291 31 240 90 Q196 141 177 212.5 Q158 284 158 391 L158 1008 L342 1008 L342 426 Q342 384 344.5 352 Q347 320 353 295 Q359 270 368.5 251 Q378 232 391 217 Q422 179 464 163 Q506 147 551 147 Q598 147 643 161 Q688 175 728.5 199 Q769 223 804 254 Q839 285 866 319 L866 1008 L1051 1008 L1051 0 L866 0 L866 127 L862 129 Z M801 1489 L962 1489 L751 1153 L631 1153 L801 1489 Z M518 1489 L680 1489 L469 1153 L348 1153 L518 1489 Z " />
<glyph glyph-name="uogonek" unicode="&#x173;" horiz-adv-x="1212" d="M862 129 Q796 63 707.5 20 Q619 -23 514 -23 Q437 -23 364 4 Q291 31 240 90 Q196 141 177 212.5 Q158 284 158 391 L158 1008 L342 1008 L342 426 Q342 384 344.5 352 Q347 320 353 295 Q359 270 368.5 251 Q378 232 391 217 Q422 179 464 163 Q506 147 551 147 Q598 147 643 161 Q688 175 728.5 199 Q769 223 804 254 Q839 285 866 319 L866 1008 L1051 1008 L1051 0 Q964 -54 915 -117.5 Q866 -181 866 -240 Q866 -289 893 -316.5 Q920 -344 971 -344 Q991 -344 1010 -341.5 Q1029 -339 1051 -334 L1051 -457 Q1028 -465 999.5 -469 Q971 -473 940 -473 Q887 -473 844.5 -458 Q802 -443 772.5 -416 Q743 -389 727 -351 Q711 -313 711 -268 Q711 -200 751 -129.5 Q791 -59 866 0 L866 127 L862 129 Z " />
<glyph glyph-name="wgrave" unicode="&#x1e81;" horiz-adv-x="1700" d="M403 592 Q419 554 432 524 Q445 494 456.5 466.5 Q468 439 479.5 411.5 Q491 384 504 352 L508 352 Q523 383 535.5 409.5 Q548 436 561 463 Q574 490 588.5 519 Q603 548 621 584 L852 1049 L856 1049 L1087 584 Q1105 548 1119.5 518.5 Q1134 489 1147.5 461.5 Q1161 434 1173.5 407.5 Q1186 381 1200 352 L1204 352 Q1216 382 1227.5 409 Q1239 436 1251 464.5 Q1263 493 1276 523.5 Q1289 554 1305 592 L1483 1008 L1679 1008 L1208 -45 L1204 -45 L950 467 Q924 520 899 571.5 Q874 623 852 670 L848 670 Q826 623 801 571.5 Q776 520 750 467 L496 -45 L492 -45 L20 1008 L225 1008 L403 592 Z M608 1489 L815 1489 L973 1153 L834 1153 L608 1489 Z " />
<glyph glyph-name="wacute" unicode="&#x1e83;" horiz-adv-x="1700" d="M403 592 Q419 554 432 524 Q445 494 456.5 466.5 Q468 439 479.5 411.5 Q491 384 504 352 L508 352 Q523 383 535.5 409.5 Q548 436 561 463 Q574 490 588.5 519 Q603 548 621 584 L852 1049 L856 1049 L1087 584 Q1105 548 1119.5 518.5 Q1134 489 1147.5 461.5 Q1161 434 1173.5 407.5 Q1186 381 1200 352 L1204 352 Q1216 382 1227.5 409 Q1239 436 1251 464.5 Q1263 493 1276 523.5 Q1289 554 1305 592 L1483 1008 L1679 1008 L1208 -45 L1204 -45 L950 467 Q924 520 899 571.5 Q874 623 852 670 L848 670 Q826 623 801 571.5 Q776 520 750 467 L496 -45 L492 -45 L20 1008 L225 1008 L403 592 Z M875 1153 L735 1153 L893 1489 L1100 1489 L875 1153 Z " />
<glyph glyph-name="wcircumflex" unicode="&#x175;" horiz-adv-x="1700" d="M403 592 Q419 554 432 524 Q445 494 456.5 466.5 Q468 439 479.5 411.5 Q491 384 504 352 L508 352 Q523 383 535.5 409.5 Q548 436 561 463 Q574 490 588.5 519 Q603 548 621 584 L852 1049 L856 1049 L1087 584 Q1105 548 1119.5 518.5 Q1134 489 1147.5 461.5 Q1161 434 1173.5 407.5 Q1186 381 1200 352 L1204 352 Q1216 382 1227.5 409 Q1239 436 1251 464.5 Q1263 493 1276 523.5 Q1289 554 1305 592 L1483 1008 L1679 1008 L1208 -45 L1204 -45 L950 467 Q924 520 899 571.5 Q874 623 852 670 L848 670 Q826 623 801 571.5 Q776 520 750 467 L496 -45 L492 -45 L20 1008 L225 1008 L403 592 Z M524 1161 L850 1509 L858 1509 L1184 1161 L1002 1161 L852 1311 L702 1161 L524 1161 Z " />
<glyph glyph-name="wdieresis" unicode="&#x1e85;" horiz-adv-x="1700" d="M403 592 Q419 554 432 524 Q445 494 456.5 466.5 Q468 439 479.5 411.5 Q491 384 504 352 L508 352 Q523 383 535.5 409.5 Q548 436 561 463 Q574 490 588.5 519 Q603 548 621 584 L852 1049 L856 1049 L1087 584 Q1105 548 1119.5 518.5 Q1134 489 1147.5 461.5 Q1161 434 1173.5 407.5 Q1186 381 1200 352 L1204 352 Q1216 382 1227.5 409 Q1239 436 1251 464.5 Q1263 493 1276 523.5 Q1289 554 1305 592 L1483 1008 L1679 1008 L1208 -45 L1204 -45 L950 467 Q924 520 899 571.5 Q874 623 852 670 L848 670 Q826 623 801 571.5 Q776 520 750 467 L496 -45 L492 -45 L20 1008 L225 1008 L403 592 Z M942 1321 Q942 1344 951 1364.5 Q960 1385 975.5 1400.5 Q991 1416 1011.5 1425 Q1032 1434 1055 1434 Q1078 1434 1098.5 1425 Q1119 1416 1134 1400.5 Q1149 1385 1158 1364.5 Q1167 1344 1167 1321 Q1167 1298 1158 1277.5 Q1149 1257 1134 1241.5 Q1119 1226 1098.5 1217 Q1078 1208 1055 1208 Q1032 1208 1011.5 1217 Q991 1226 975.5 1241.5 Q960 1257 951 1277.5 Q942 1298 942 1321 Z M541 1321 Q541 1344 550 1364.5 Q559 1385 574 1400.5 Q589 1416 609.5 1425 Q630 1434 653 1434 Q676 1434 696.5 1425 Q717 1416 732.5 1400.5 Q748 1385 757 1364.5 Q766 1344 766 1321 Q766 1298 757 1277.5 Q748 1257 732.5 1241.5 Q717 1226 696.5 1217 Q676 1208 653 1208 Q630 1208 609.5 1217 Q589 1226 574 1241.5 Q559 1257 550 1277.5 Q541 1298 541 1321 Z " />
<glyph glyph-name="ygrave" unicode="&#x1ef3;" horiz-adv-x="1087" d="M176 -451 L449 109 L29 1008 L233 1008 L410 627 Q445 549 480.5 471 Q516 393 547 324 L551 324 Q585 399 619 474 Q653 549 688 627 L864 1008 L1059 1008 L377 -451 L176 -451 Z M303 1489 L510 1489 L668 1153 L529 1153 L303 1489 Z " />
<glyph glyph-name="yacute" unicode="&#xfd;" horiz-adv-x="1087" d="M176 -451 L449 109 L29 1008 L233 1008 L410 627 Q445 549 480.5 471 Q516 393 547 324 L551 324 Q585 399 619 474 Q653 549 688 627 L864 1008 L1059 1008 L377 -451 L176 -451 Z M570 1153 L430 1153 L588 1489 L795 1489 L570 1153 Z " />
<glyph glyph-name="ycircumflex" unicode="&#x177;" horiz-adv-x="1087" d="M176 -451 L449 109 L29 1008 L233 1008 L410 627 Q445 549 480.5 471 Q516 393 547 324 L551 324 Q585 399 619 474 Q653 549 688 627 L864 1008 L1059 1008 L377 -451 L176 -451 Z M219 1161 L545 1509 L553 1509 L879 1161 L697 1161 L547 1311 L397 1161 L219 1161 Z " />
<glyph glyph-name="ydieresis" unicode="&#xff;" horiz-adv-x="1087" d="M176 -451 L449 109 L29 1008 L233 1008 L410 627 Q445 549 480.5 471 Q516 393 547 324 L551 324 Q585 399 619 474 Q653 549 688 627 L864 1008 L1059 1008 L377 -451 L176 -451 Z M637 1321 Q637 1344 646 1364.5 Q655 1385 670.5 1400.5 Q686 1416 706.5 1425 Q727 1434 750 1434 Q773 1434 793.5 1425 Q814 1416 829 1400.5 Q844 1385 853 1364.5 Q862 1344 862 1321 Q862 1298 853 1277.5 Q844 1257 829 1241.5 Q814 1226 793.5 1217 Q773 1208 750 1208 Q727 1208 706.5 1217 Q686 1226 670.5 1241.5 Q655 1257 646 1277.5 Q637 1298 637 1321 Z M236 1321 Q236 1344 245 1364.5 Q254 1385 269 1400.5 Q284 1416 304.5 1425 Q325 1434 348 1434 Q371 1434 391.5 1425 Q412 1416 427.5 1400.5 Q443 1385 452 1364.5 Q461 1344 461 1321 Q461 1298 452 1277.5 Q443 1257 427.5 1241.5 Q412 1226 391.5 1217 Q371 1208 348 1208 Q325 1208 304.5 1217 Q284 1226 269 1241.5 Q254 1257 245 1277.5 Q236 1298 236 1321 Z " />
<glyph glyph-name="zacute" unicode="&#x17a;" horiz-adv-x="965" d="M41 0 L39 4 L590 836 L588 840 L80 840 L80 1008 L913 1008 L915 1004 L365 172 L367 168 L903 168 L903 0 L41 0 Z M505 1153 L365 1153 L523 1489 L730 1489 L505 1153 Z " />
<glyph glyph-name="zcaron" unicode="&#x17e;" horiz-adv-x="965" d="M41 0 L39 4 L590 836 L588 840 L80 840 L80 1008 L913 1008 L915 1004 L365 172 L367 168 L903 168 L903 0 L41 0 Z M814 1481 L488 1133 L480 1133 L154 1481 L337 1481 L486 1331 L636 1481 L814 1481 Z " />
<glyph glyph-name="zdotaccent" unicode="&#x17c;" horiz-adv-x="965" d="M41 0 L39 4 L590 836 L588 840 L80 840 L80 1008 L913 1008 L915 1004 L365 172 L367 168 L903 168 L903 0 L41 0 Z M486 1208 Q462 1208 441.5 1216.5 Q421 1225 406 1240.5 Q391 1256 382 1276.5 Q373 1297 373 1321 Q373 1345 382 1365.5 Q391 1386 406 1401 Q421 1416 441.5 1425 Q462 1434 486 1434 Q510 1434 530.5 1425 Q551 1416 566.5 1401 Q582 1386 590.5 1365.5 Q599 1345 599 1321 Q599 1297 590.5 1276.5 Q582 1256 566.5 1240.5 Q551 1225 530.5 1216.5 Q510 1208 486 1208 Z " />
<glyph glyph-name="eng" unicode="&#x14b;" horiz-adv-x="1212" d="M162 1008 L346 1008 L346 881 L350 879 Q416 945 506 987.5 Q596 1030 702 1030 Q786 1030 854.5 1002 Q923 974 971 920 Q992 896 1007.5 868.5 Q1023 841 1033.5 805.5 Q1044 770 1049.5 725.5 Q1055 681 1055 623 L1055 -104 Q1055 -161 1050 -204 Q1045 -247 1035.5 -279.5 Q1026 -312 1013 -335.5 Q1000 -359 985 -377 Q961 -405 932 -423.5 Q903 -442 871 -453 Q839 -464 805 -468.5 Q771 -473 737 -473 Q702 -473 672 -469 Q642 -465 616 -457 L616 -291 Q645 -297 675.5 -301 Q706 -305 731 -305 Q775 -305 802 -291 Q829 -277 844 -251.5 Q859 -226 864.5 -191 Q870 -156 870 -113 L870 588 Q870 666 859 715 Q848 764 823 793 Q792 830 748 844 Q704 858 662 858 Q619 858 574.5 845 Q530 832 488 809.5 Q446 787 409.5 756.5 Q373 726 346 690 L346 0 L162 0 L162 1008 Z " />
<glyph glyph-name="eth" unicode="&#xf0;" horiz-adv-x="1188" d="M276 1202 L508 1290 Q412 1357 295 1413 L406 1536 Q484 1496 553 1452.5 Q622 1409 684 1358 L901 1440 L928 1313 L788 1260 Q869 1177 929 1086 Q989 995 1029 900.5 Q1069 806 1088.5 710.5 Q1108 615 1108 524 Q1108 387 1066.5 284 Q1025 181 954.5 113 Q884 45 789 11 Q694 -23 588 -23 Q471 -23 376.5 15.5 Q282 54 215 121.5 Q148 189 112 281.5 Q76 374 76 481 Q76 589 112 681.5 Q148 774 212.5 842.5 Q277 911 365.5 950 Q454 989 559 989 Q647 989 718.5 962.5 Q790 936 838 891 L842 895 Q807 975 752 1051 Q697 1127 623 1196 L303 1075 L276 1202 Z M260 492 Q260 419 283.5 355.5 Q307 292 350.5 245.5 Q394 199 455.5 172 Q517 145 592 145 Q670 145 731.5 173 Q793 201 835.5 249 Q878 297 901 360.5 Q924 424 924 496 Q924 575 897 637 Q870 699 824 741.5 Q778 784 717 806.5 Q656 829 588 829 Q515 829 454.5 804 Q394 779 351 734 Q308 689 284 627 Q260 565 260 492 Z " />
<glyph glyph-name="thorn" unicode="&#xfe;" horiz-adv-x="1221" d="M162 1565 L346 1565 L346 946 L350 944 Q401 978 473.5 1004 Q546 1030 637 1030 Q738 1030 827 992.5 Q916 955 982.5 887 Q1049 819 1087.5 723.5 Q1126 628 1126 512 Q1126 393 1085 294.5 Q1044 196 973 125.5 Q902 55 805 16 Q708 -23 596 -23 Q524 -23 463.5 -8 Q403 7 350 29 L346 27 L346 -451 L162 -451 L162 1565 Z M346 207 Q396 179 464 159 Q532 139 600 139 Q676 139 738.5 166 Q801 193 846 241 Q891 289 915.5 355.5 Q940 422 940 500 Q940 577 916.5 643.5 Q893 710 850 759 Q807 808 745.5 836 Q684 864 608 864 Q536 864 467.5 839 Q399 814 346 776 L346 207 Z " />
<glyph glyph-name="longs" unicode="&#x17f;" horiz-adv-x="627" d="M745 1397 Q726 1402 705 1406 Q684 1410 663 1413 Q642 1416 622.5 1417.5 Q603 1419 588 1419 Q535 1419 501.5 1404 Q468 1389 449 1363 Q430 1337 423 1301 Q416 1265 416 1223 L416 0 L231 0 L231 842 L-10 842 L-12 846 L135 1008 L231 1008 L231 1194 Q231 1244 235.5 1288 Q240 1332 251 1370.5 Q262 1409 281.5 1441.5 Q301 1474 330 1501 Q381 1548 445.5 1567.5 Q510 1587 580 1587 Q621 1587 667 1579.5 Q713 1572 745 1563 L745 1397 Z " />
<glyph glyph-name="ampersand" unicode="&#x26;" horiz-adv-x="1575" d="M1536 913 L1317 913 Q1323 803 1323 694 Q1323 618 1317.5 547.5 Q1312 477 1297 412.5 Q1282 348 1256 290 Q1230 232 1190 182 Q1108 82 981 29.5 Q854 -23 696 -23 Q565 -23 460.5 13 Q356 49 282 112.5 Q208 176 168.5 262.5 Q129 349 129 451 Q129 531 154 602.5 Q179 674 226.5 731.5 Q274 789 343.5 831.5 Q413 874 502 895 L154 1479 L156 1483 L924 1483 L924 1311 L465 1311 L463 1307 L774 788 L772 784 Q686 782 604.5 765 Q523 748 459.5 710.5 Q396 673 357.5 612.5 Q319 552 319 465 Q319 393 346.5 335.5 Q374 278 425 237 Q476 196 547 174 Q618 152 705 152 Q820 152 909.5 192 Q999 232 1055 307 Q1105 376 1123 473.5 Q1141 571 1141 705 Q1141 743 1139.5 800 Q1138 857 1135 913 L926 913 L926 1081 L1536 1081 L1536 913 Z " />
<glyph glyph-name="grave" unicode="&#x60;" horiz-adv-x="1028" d="M268 1489 L475 1489 L633 1153 L494 1153 L268 1489 Z " />
<glyph glyph-name="acute" unicode="&#xb4;" horiz-adv-x="1028" d="M535 1153 L395 1153 L553 1489 L760 1489 L535 1153 Z " />
<glyph glyph-name="circumflex" unicode="&#x2c6;" horiz-adv-x="1028" d="M184 1161 L510 1509 L518 1509 L844 1161 L662 1161 L512 1311 L362 1161 L184 1161 Z " />
<glyph glyph-name="caron" unicode="&#x2c7;" horiz-adv-x="1028" d="M844 1481 L518 1133 L510 1133 L184 1481 L367 1481 L516 1331 L666 1481 L844 1481 Z " />
<glyph glyph-name="commaaccent" unicode="&#xf6c3;" horiz-adv-x="1028" d="M657 -111 L502 -557 L369 -557 L477 -111 L657 -111 Z " />
<glyph glyph-name="tilde" unicode="&#x2dc;" horiz-adv-x="1028" d="M193 1360 Q220 1398 263.5 1423 Q307 1448 362 1448 Q403 1448 442.5 1435 Q482 1422 528 1399 Q573 1376 603.5 1364 Q634 1352 666 1352 Q693 1352 717 1360.5 Q741 1369 761 1383 Q781 1397 798.5 1414.5 Q816 1432 831 1450 L836 1448 L836 1288 Q808 1250 764.5 1225 Q721 1200 666 1200 Q625 1200 585.5 1213 Q546 1226 500 1249 Q455 1272 425 1284 Q395 1296 362 1296 Q335 1296 311.5 1287.5 Q288 1279 267.5 1265 Q247 1251 229.5 1233.5 Q212 1216 197 1198 L193 1200 L193 1360 Z " />
<glyph glyph-name="dieresis" unicode="&#xa8;" horiz-adv-x="1028" d="M602 1321 Q602 1344 611 1364.5 Q620 1385 635.5 1400.5 Q651 1416 671.5 1425 Q692 1434 715 1434 Q738 1434 758.5 1425 Q779 1416 794 1400.5 Q809 1385 818 1364.5 Q827 1344 827 1321 Q827 1298 818 1277.5 Q809 1257 794 1241.5 Q779 1226 758.5 1217 Q738 1208 715 1208 Q692 1208 671.5 1217 Q651 1226 635.5 1241.5 Q620 1257 611 1277.5 Q602 1298 602 1321 Z M201 1321 Q201 1344 210 1364.5 Q219 1385 234 1400.5 Q249 1416 269.5 1425 Q290 1434 313 1434 Q336 1434 356.5 1425 Q377 1416 392.5 1400.5 Q408 1385 417 1364.5 Q426 1344 426 1321 Q426 1298 417 1277.5 Q408 1257 392.5 1241.5 Q377 1226 356.5 1217 Q336 1208 313 1208 Q290 1208 269.5 1217 Q249 1226 234 1241.5 Q219 1257 210 1277.5 Q201 1298 201 1321 Z " />
<glyph glyph-name="macron" unicode="&#xaf;" horiz-adv-x="1028" d="M233 1391 L795 1391 L795 1251 L233 1251 L233 1391 Z " />
<glyph glyph-name="breve" unicode="&#x2d8;" horiz-adv-x="1028" d="M799 1475 Q797 1410 778.5 1354.5 Q760 1299 724.5 1258.5 Q689 1218 636.5 1194.5 Q584 1171 514 1171 Q443 1171 391 1194.5 Q339 1218 303.5 1258.5 Q268 1299 250 1354.5 Q232 1410 229 1475 L348 1475 Q351 1439 361 1404.5 Q371 1370 390.5 1344 Q410 1318 440 1302 Q470 1286 514 1286 Q558 1286 588 1302 Q618 1318 637.5 1344 Q657 1370 667 1404.5 Q677 1439 680 1475 L799 1475 Z " />
<glyph glyph-name="ring" unicode="&#x2da;" horiz-adv-x="1028" d="M514 1128 Q463 1128 419.5 1146 Q376 1164 343.5 1195.5 Q311 1227 292.5 1269.5 Q274 1312 274 1362 Q274 1412 292.5 1454.5 Q311 1497 343.5 1528.5 Q376 1560 419.5 1577.5 Q463 1595 514 1595 Q565 1595 608.5 1577.5 Q652 1560 684.5 1528.5 Q717 1497 735.5 1454.5 Q754 1412 754 1362 Q754 1312 735.5 1269.5 Q717 1227 684.5 1195.5 Q652 1164 608.5 1146 Q565 1128 514 1128 Z M514 1231 Q544 1231 568 1241.5 Q592 1252 608.5 1269.5 Q625 1287 634 1311 Q643 1335 643 1362 Q643 1389 634 1413 Q625 1437 608.5 1454.5 Q592 1472 568 1482.5 Q544 1493 514 1493 Q484 1493 460 1482.5 Q436 1472 419.5 1454.5 Q403 1437 394 1413 Q385 1389 385 1362 Q385 1335 394 1311 Q403 1287 419.5 1269.5 Q436 1252 460 1241.5 Q484 1231 514 1231 Z " />
<glyph glyph-name="hungarumlaut" unicode="&#x2dd;" horiz-adv-x="1028" d="M709 1489 L870 1489 L659 1153 L539 1153 L709 1489 Z M426 1489 L588 1489 L377 1153 L256 1153 L426 1489 Z " />
<glyph glyph-name="dotaccent" unicode="&#x2d9;" horiz-adv-x="1028" d="M516 1208 Q492 1208 471.5 1216.5 Q451 1225 436 1240.5 Q421 1256 412 1276.5 Q403 1297 403 1321 Q403 1345 412 1365.5 Q421 1386 436 1401 Q451 1416 471.5 1425 Q492 1434 516 1434 Q540 1434 560.5 1425 Q581 1416 596.5 1401 Q612 1386 620.5 1365.5 Q629 1345 629 1321 Q629 1297 620.5 1276.5 Q612 1256 596.5 1240.5 Q581 1225 560.5 1216.5 Q540 1208 516 1208 Z " />
<glyph glyph-name="cedilla" unicode="&#xb8;" horiz-adv-x="1028" d="M492 66 L584 45 L543 -88 Q626 -107 675.5 -151 Q725 -195 725 -272 Q725 -313 710 -346.5 Q695 -380 667 -403.5 Q639 -427 599 -440 Q559 -453 510 -453 Q462 -453 419.5 -442 Q377 -431 346 -416 L377 -311 Q411 -328 444 -339 Q477 -350 508 -350 Q548 -350 577 -332 Q606 -314 606 -279 Q606 -250 587 -230.5 Q568 -211 539.5 -199.5 Q511 -188 478.5 -183 Q446 -178 418 -176 L492 66 Z " />
<glyph glyph-name="ogonek" unicode="&#x2db;" horiz-adv-x="1028" d="M733 -455 Q708 -463 678 -468 Q648 -473 616 -473 Q564 -473 522 -457.5 Q480 -442 450.5 -415 Q421 -388 405 -351 Q389 -314 389 -270 Q389 -230 403 -187.5 Q417 -145 443 -104 Q469 -63 506.5 -25 Q544 13 592 45 L733 14 Q642 -48 593.5 -114.5 Q545 -181 545 -244 Q545 -289 571.5 -316.5 Q598 -344 649 -344 Q666 -344 689 -341 Q712 -338 733 -332 L733 -455 Z " />
<glyph glyph-name="comma" unicode="&#x2c;" horiz-adv-x="602" d="M229 279 L416 279 L250 -301 L115 -301 L229 279 Z " />
<glyph glyph-name="semicolon" unicode="&#x3b;" horiz-adv-x="602" d="M229 279 L416 279 L250 -301 L115 -301 L229 279 Z M178 905 Q178 931 187.5 954 Q197 977 214 994 Q231 1011 254 1020.5 Q277 1030 303 1030 Q329 1030 352 1020.5 Q375 1011 392 994 Q409 977 418.5 954 Q428 931 428 905 Q428 879 418.5 856.5 Q409 834 392 817 Q375 800 352 790 Q329 780 303 780 Q277 780 254 790 Q231 800 214 817 Q197 834 187.5 856.5 Q178 879 178 905 Z " />
<glyph glyph-name="colon" unicode="&#x3a;" horiz-adv-x="602" d="M176 102 Q176 128 185.5 151 Q195 174 212 191 Q229 208 252 217.5 Q275 227 301 227 Q327 227 350 217.5 Q373 208 390 191 Q407 174 416.5 151 Q426 128 426 102 Q426 76 416.5 53.5 Q407 31 390 14 Q373 -3 350 -13 Q327 -23 301 -23 Q275 -23 252 -13 Q229 -3 212 14 Q195 31 185.5 53.5 Q176 76 176 102 Z M176 905 Q176 931 185.5 954 Q195 977 212 994 Q229 1011 252 1020.5 Q275 1030 301 1030 Q327 1030 350 1020.5 Q373 1011 390 994 Q407 977 416.5 954 Q426 931 426 905 Q426 879 416.5 856.5 Q407 834 390 817 Q373 800 350 790 Q327 780 301 780 Q275 780 252 790 Q229 800 212 817 Q195 834 185.5 856.5 Q176 879 176 905 Z " />
<glyph glyph-name="period" unicode="&#x2e;" horiz-adv-x="602" d="M176 102 Q176 128 185.5 151 Q195 174 212 191 Q229 208 252 217.5 Q275 227 301 227 Q327 227 350 217.5 Q373 208 390 191 Q407 174 416.5 151 Q426 128 426 102 Q426 76 416.5 53.5 Q407 31 390 14 Q373 -3 350 -13 Q327 -23 301 -23 Q275 -23 252 -13 Q229 -3 212 14 Q195 31 185.5 53.5 Q176 76 176 102 Z " />
<glyph glyph-name="ellipsis" unicode="&#x2026;" horiz-adv-x="1671" d="M176 102 Q176 128 185.5 151 Q195 174 212 191 Q229 208 252 217.5 Q275 227 301 227 Q327 227 350 217.5 Q373 208 390 191 Q407 174 416.5 151 Q426 128 426 102 Q426 76 416.5 53.5 Q407 31 390 14 Q373 -3 350 -13 Q327 -23 301 -23 Q275 -23 252 -13 Q229 -3 212 14 Q195 31 185.5 53.5 Q176 76 176 102 Z M711 102 Q711 128 720.5 151 Q730 174 747 191 Q764 208 787 217.5 Q810 227 836 227 Q862 227 885 217.5 Q908 208 925 191 Q942 174 951.5 151 Q961 128 961 102 Q961 76 951.5 53.5 Q942 31 925 14 Q908 -3 885 -13 Q862 -23 836 -23 Q810 -23 787 -13 Q764 -3 747 14 Q730 31 720.5 53.5 Q711 76 711 102 Z M1245 102 Q1245 128 1254.5 151 Q1264 174 1281 191 Q1298 208 1321 217.5 Q1344 227 1370 227 Q1396 227 1419 217.5 Q1442 208 1459 191 Q1476 174 1485.5 151 Q1495 128 1495 102 Q1495 76 1485.5 53.5 Q1476 31 1459 14 Q1442 -3 1419 -13 Q1396 -23 1370 -23 Q1344 -23 1321 -13 Q1298 -3 1281 14 Q1264 31 1254.5 53.5 Q1245 76 1245 102 Z " />
<glyph glyph-name="hyphen" unicode="&#x2d;" horiz-adv-x="721" d="M117 649 L604 649 L604 485 L117 485 L117 649 Z " />
<glyph glyph-name="exclam" unicode="&#x21;" horiz-adv-x="627" d="M219 1483 L412 1483 L397 455 L233 455 L219 1483 Z M190 102 Q190 128 200 151 Q210 174 227 191 Q244 208 266.5 217.5 Q289 227 315 227 Q341 227 364 217.5 Q387 208 404 191 Q421 174 430.5 151 Q440 128 440 102 Q440 76 430.5 53.5 Q421 31 404 14 Q387 -3 364 -13 Q341 -23 315 -23 Q289 -23 266.5 -13 Q244 -3 227 14 Q210 31 200 53.5 Q190 76 190 102 Z " />
<glyph glyph-name="exclamdown" unicode="&#xa1;" horiz-adv-x="627" d="M412 -475 L219 -475 L233 553 L397 553 L412 -475 Z M440 905 Q440 879 430.5 856.5 Q421 834 404 817 Q387 800 364 790 Q341 780 315 780 Q289 780 266.5 790 Q244 800 227 817 Q210 834 200 856.5 Q190 879 190 905 Q190 931 200 954 Q210 977 227 994 Q244 1011 266.5 1020.5 Q289 1030 315 1030 Q341 1030 364 1020.5 Q387 1011 404 994 Q421 977 430.5 954 Q440 931 440 905 Z " />
<glyph glyph-name="question" unicode="&#x3f;" horiz-adv-x="956" d="M229 768 Q248 766 273.5 765 Q299 764 322 764 Q400 764 469 781 Q538 798 589 832.5 Q640 867 670 920.5 Q700 974 700 1047 Q700 1108 678.5 1159.5 Q657 1211 618 1248 Q579 1285 524 1306 Q469 1327 403 1327 Q340 1327 277 1308 Q214 1289 162 1257 L162 1448 Q214 1476 280 1490.5 Q346 1505 412 1505 Q512 1505 600 1472.5 Q688 1440 753.5 1381.5 Q819 1323 857 1241 Q895 1159 895 1059 Q895 960 857.5 878.5 Q820 797 754 738.5 Q688 680 597 646.5 Q506 613 399 610 L397 391 L233 391 L229 768 Z M440 102 Q440 76 430.5 53.5 Q421 31 404 14 Q387 -3 364 -13 Q341 -23 315 -23 Q289 -23 266.5 -13 Q244 -3 227 14 Q210 31 200 53.5 Q190 76 190 102 Q190 128 200 151 Q210 174 227 191 Q244 208 266.5 217.5 Q289 227 315 227 Q341 227 364 217.5 Q387 208 404 191 Q421 174 430.5 151 Q440 128 440 102 Z " />
<glyph glyph-name="questiondown" unicode="&#xbf;" horiz-adv-x="956" d="M727 240 Q708 242 683 243 Q658 244 635 244 Q557 244 488 227 Q419 210 367.5 175.5 Q316 141 286 87.5 Q256 34 256 -39 Q256 -101 277.5 -152 Q299 -203 338.5 -240.5 Q378 -278 432.5 -298.5 Q487 -319 553 -319 Q616 -319 679 -300.5 Q742 -282 795 -250 L795 -440 Q742 -468 676.5 -483 Q611 -498 545 -498 Q445 -498 357 -465.5 Q269 -433 203 -374 Q137 -315 99 -233 Q61 -151 61 -51 Q61 48 98.5 129 Q136 210 202 268.5 Q268 327 359 360.5 Q450 394 557 397 L559 616 L723 616 L727 240 Z M516 905 Q516 931 525.5 954 Q535 977 552 994 Q569 1011 592 1020.5 Q615 1030 641 1030 Q667 1030 690 1020.5 Q713 1011 730 994 Q747 977 756.5 954 Q766 931 766 905 Q766 879 756.5 856.5 Q747 834 730 817 Q713 800 690 790 Q667 780 641 780 Q615 780 592 790 Q569 800 552 817 Q535 834 525.5 856.5 Q516 879 516 905 Z " />
<glyph glyph-name="quoteleft" unicode="&#x2018;" horiz-adv-x="549" d="M295 1520 L420 1520 L307 969 L127 969 L295 1520 Z " />
<glyph glyph-name="quoteright" unicode="&#x2019;" horiz-adv-x="549" d="M242 1520 L422 1520 L254 969 L129 969 L242 1520 Z " />
<glyph glyph-name="quotedblleft" unicode="&#x201c;" horiz-adv-x="881" d="M295 1520 L420 1520 L307 969 L127 969 L295 1520 Z M627 1520 L752 1520 L639 969 L459 969 L627 1520 Z " />
<glyph glyph-name="quotedblright" unicode="&#x201d;" horiz-adv-x="881" d="M242 1520 L422 1520 L254 969 L129 969 L242 1520 Z M574 1520 L754 1520 L586 969 L461 969 L574 1520 Z " />
<glyph glyph-name="quotesinglbase" unicode="&#x201a;" horiz-adv-x="549" d="M242 337 L422 337 L254 -214 L129 -214 L242 337 Z " />
<glyph glyph-name="quotedblbase" unicode="&#x201e;" horiz-adv-x="881" d="M242 337 L422 337 L254 -214 L129 -214 L242 337 Z M574 337 L754 337 L586 -214 L461 -214 L574 337 Z " />
<glyph glyph-name="guilsinglleft" unicode="&#x2039;" horiz-adv-x="705" d="M264 504 L602 55 L420 55 L82 504 L420 952 L602 952 L264 504 Z " />
<glyph glyph-name="guilsinglright" unicode="&#x203a;" horiz-adv-x="705" d="M440 504 L102 952 L285 952 L623 504 L285 55 L102 55 L440 504 Z " />
<glyph glyph-name="guillemotleft" unicode="&#xab;" horiz-adv-x="1122" d="M264 504 L602 55 L420 55 L82 504 L420 952 L602 952 L264 504 Z M682 504 L1020 55 L838 55 L500 504 L838 952 L1020 952 L682 504 Z " />
<glyph glyph-name="guillemotright" unicode="&#xbb;" horiz-adv-x="1122" d="M440 504 L102 952 L285 952 L623 504 L285 55 L102 55 L440 504 Z M858 504 L520 952 L703 952 L1041 504 L703 55 L520 55 L858 504 Z " />
<glyph glyph-name="slash" unicode="&#x2f;" horiz-adv-x="913" d="M725 1561 L877 1561 L188 -78 L37 -78 L725 1561 Z " />
<glyph glyph-name="bar" unicode="&#x7c;" horiz-adv-x="655" d="M252 1638 L403 1638 L403 -451 L252 -451 L252 1638 Z " />
<glyph glyph-name="underscore" unicode="&#x5f;" horiz-adv-x="973" d="M973 -184 L973 -291 L0 -291 L0 -184 L973 -184 Z " />
<glyph glyph-name="endash" unicode="&#x2013;" horiz-adv-x="1016" d="M106 641 L909 641 L909 494 L106 494 L106 641 Z " />
<glyph glyph-name="emdash" unicode="&#x2014;" horiz-adv-x="1610" d="M74 631 L1536 631 L1536 504 L74 504 L74 631 Z " />
<glyph glyph-name="bullet" unicode="&#x2022;" horiz-adv-x="786" d="M170 608 Q170 654 187.5 694.5 Q205 735 235.5 765.5 Q266 796 306.5 813.5 Q347 831 393 831 Q439 831 479.5 813.5 Q520 796 550.5 765.5 Q581 735 598.5 694.5 Q616 654 616 608 Q616 562 598.5 521.5 Q581 481 550.5 450.5 Q520 420 479.5 402.5 Q439 385 393 385 Q347 385 306.5 402.5 Q266 420 235.5 450.5 Q205 481 187.5 521.5 Q170 562 170 608 Z " />
<glyph glyph-name="periodcentered" unicode="&#xb7;" horiz-adv-x="602" d="M176 608 Q176 634 185.5 657 Q195 680 212 697 Q229 714 252 723.5 Q275 733 301 733 Q327 733 350 723.5 Q373 714 390 697 Q407 680 416.5 657 Q426 634 426 608 Q426 582 416.5 559.5 Q407 537 390 520 Q373 503 350 493 Q327 483 301 483 Q275 483 252 493 Q229 503 212 520 Q195 537 185.5 559.5 Q176 582 176 608 Z " />
<glyph glyph-name="parenleft" unicode="&#x28;" horiz-adv-x="717" d="M444 -436 Q384 -358 331 -257 Q278 -156 237.5 -33 Q197 90 173.5 234 Q150 378 150 543 Q150 707 173.5 851 Q197 995 237.5 1118 Q278 1241 331 1342.5 Q384 1444 444 1522 L627 1522 Q562 1438 506 1332.5 Q450 1227 408.5 1103.5 Q367 980 343 839 Q319 698 319 543 Q319 388 343 247 Q367 106 408.5 -18 Q450 -142 506 -247 Q562 -352 627 -436 L444 -436 Z " />
<glyph glyph-name="parenright" unicode="&#x29;" horiz-adv-x="717" d="M90 -436 Q154 -352 210.5 -247 Q267 -142 308 -18 Q349 106 373 247 Q397 388 397 543 Q397 698 373 839 Q349 980 308 1103.5 Q267 1227 210.5 1332.5 Q154 1438 90 1522 L272 1522 Q332 1444 385.5 1342.5 Q439 1241 479.5 1118 Q520 995 543.5 851 Q567 707 567 543 Q567 378 543.5 234 Q520 90 479.5 -33 Q439 -156 385.5 -257 Q332 -358 272 -436 L90 -436 Z " />
<glyph glyph-name="bracketleft" unicode="&#x5b;" horiz-adv-x="737" d="M641 -289 L641 -436 L197 -436 L197 1522 L641 1522 L641 1374 L367 1374 L367 -289 L641 -289 Z " />
<glyph glyph-name="bracketright" unicode="&#x5d;" horiz-adv-x="737" d="M371 -289 L371 1374 L96 1374 L96 1522 L541 1522 L541 -436 L96 -436 L96 -289 L371 -289 Z " />
<glyph glyph-name="braceleft" unicode="&#x7b;" horiz-adv-x="782" d="M281 297 Q281 342 276 374.5 Q271 407 254 428 Q237 449 205 459 Q173 469 119 469 L68 469 L68 616 L119 616 Q173 616 205 626.5 Q237 637 254 658 Q271 679 276 711.5 Q281 744 281 788 L281 1221 Q281 1298 298 1358 Q315 1418 351.5 1459.5 Q388 1501 445 1522.5 Q502 1544 582 1544 Q616 1544 649.5 1541.5 Q683 1539 705 1534 L705 1389 Q685 1394 656.5 1395.5 Q628 1397 606 1397 Q561 1397 531 1386 Q501 1375 483 1351.5 Q465 1328 458 1290.5 Q451 1253 451 1200 L451 799 Q451 748 445.5 706.5 Q440 665 425.5 632.5 Q411 600 386.5 578 Q362 556 324 545 L324 541 Q362 529 386.5 507 Q411 485 425.5 453 Q440 421 445.5 379.5 Q451 338 451 287 L451 -115 Q451 -168 458 -205 Q465 -242 483 -265.5 Q501 -289 531 -300 Q561 -311 606 -311 Q628 -311 656.5 -309.5 Q685 -308 705 -303 L705 -449 Q683 -454 649.5 -456.5 Q616 -459 582 -459 Q502 -459 445 -437.5 Q388 -416 351.5 -374.5 Q315 -333 298 -273 Q281 -213 281 -135 L281 297 Z " />
<glyph glyph-name="braceright" unicode="&#x7d;" horiz-adv-x="782" d="M332 287 Q332 338 337.5 379.5 Q343 421 357 453 Q371 485 395.5 507 Q420 529 459 541 L459 545 Q420 556 395.5 578 Q371 600 357 632.5 Q343 665 337.5 706.5 Q332 748 332 799 L332 1200 Q332 1253 324.5 1290.5 Q317 1328 299 1351.5 Q281 1375 251 1386 Q221 1397 176 1397 Q154 1397 126 1395.5 Q98 1394 78 1389 L78 1534 Q99 1539 133 1541.5 Q167 1544 201 1544 Q281 1544 338 1522.5 Q395 1501 431.5 1459.5 Q468 1418 485 1358 Q502 1298 502 1221 L502 788 Q502 744 507 711.5 Q512 679 529 658 Q546 637 578 626.5 Q610 616 664 616 L715 616 L715 469 L664 469 Q610 469 578 459 Q546 449 529 428 Q512 407 507 374.5 Q502 342 502 297 L502 -135 Q502 -213 485 -273 Q468 -333 431.5 -374.5 Q395 -416 338 -437.5 Q281 -459 201 -459 Q167 -459 133 -456.5 Q99 -454 78 -449 L78 -303 Q98 -308 126 -309.5 Q154 -311 176 -311 Q221 -311 251 -300 Q281 -289 299 -265.5 Q317 -242 324.5 -205 Q332 -168 332 -115 L332 287 Z " />
<glyph glyph-name="asterisk" unicode="&#x2a;" horiz-adv-x="936" d="M414 995 L156 829 L86 948 L358 1090 L86 1231 L156 1350 L414 1184 L399 1491 L539 1491 L524 1184 L782 1350 L852 1231 L580 1090 L852 948 L782 829 L524 995 L539 688 L399 688 L414 995 Z " />
<glyph glyph-name="dagger" unicode="&#x2020;" horiz-adv-x="1251" d="M541 840 L133 840 L133 1004 L541 1004 L541 1483 L711 1483 L711 1004 L1118 1004 L1118 840 L711 840 L711 -451 L541 -451 L541 840 Z " />
<glyph glyph-name="daggerdbl" unicode="&#x2021;" horiz-adv-x="1251" d="M133 193 L541 193 L541 840 L133 840 L133 1004 L541 1004 L541 1483 L711 1483 L711 1004 L1118 1004 L1118 840 L711 840 L711 193 L1118 193 L1118 29 L711 29 L711 -451 L541 -451 L541 29 L133 29 L133 193 Z " />
<glyph glyph-name="section" unicode="&#xa7;" horiz-adv-x="1157" d="M244 -51 Q315 -98 394 -126 Q473 -154 555 -154 Q603 -154 644 -143 Q685 -132 716 -110.5 Q747 -89 764.5 -56.5 Q782 -24 782 20 Q782 69 759.5 103.5 Q737 138 695.5 165 Q654 192 595 215 Q536 238 463 264 Q404 286 342 316 Q280 346 229 388.5 Q178 431 145.5 489 Q113 547 113 625 Q113 732 170.5 801.5 Q228 871 328 911 L328 915 Q277 954 243 1013 Q209 1072 209 1157 Q209 1235 240 1298 Q271 1361 325 1405.5 Q379 1450 453 1473.5 Q527 1497 614 1497 Q704 1497 778 1474.5 Q852 1452 903 1423 L903 1239 Q838 1282 764.5 1307.5 Q691 1333 616 1333 Q569 1333 528.5 1322 Q488 1311 458 1289.5 Q428 1268 410.5 1236.5 Q393 1205 393 1163 Q393 1110 420 1074.5 Q447 1039 491.5 1013 Q536 987 592 966.5 Q648 946 707 924 Q771 900 834 870 Q897 840 947.5 797.5 Q998 755 1029.5 696 Q1061 637 1061 555 Q1061 498 1045 452.5 Q1029 407 1000.5 372.5 Q972 338 933 313.5 Q894 289 848 274 L848 270 Q901 227 934 168 Q967 109 967 23 Q967 -56 936.5 -119 Q906 -182 852 -226 Q798 -270 722.5 -293.5 Q647 -317 557 -317 Q508 -317 462.5 -310.5 Q417 -304 376.5 -293 Q336 -282 302.5 -268.5 Q269 -255 244 -240 L244 -51 Z M596 782 Q570 792 545 801 Q520 810 494 821 Q453 813 417 798.5 Q381 784 354.5 761.5 Q328 739 312.5 708 Q297 677 297 637 Q297 589 318.5 555 Q340 521 375.5 495.5 Q411 470 457.5 451 Q504 432 555 414 Q589 401 623 388.5 Q657 376 692 360 Q777 377 827 423 Q877 469 877 545 Q877 595 854.5 630.5 Q832 666 794 693 Q756 720 705 740.5 Q654 761 596 782 Z " />
<glyph glyph-name="paragraph" unicode="&#xb6;" horiz-adv-x="1167" d="M489 741 Q412 741 344 770 Q276 799 225 849.5 Q174 900 144.5 967.5 Q115 1035 115 1112 Q115 1189 144.5 1256.5 Q174 1324 225 1374.5 Q276 1425 344 1454 Q412 1483 489 1483 L963 1483 L963 -451 L811 -451 L811 1343 L641 1343 L641 -451 L489 -451 L489 741 Z " />
<glyph glyph-name="asciicircum" unicode="&#x5e;" horiz-adv-x="1180" d="M588 1505 L592 1505 L1034 741 L881 741 L592 1241 L588 1241 L299 741 L145 741 L588 1505 Z " />
<glyph glyph-name="asciitilde" unicode="&#x7e;" horiz-adv-x="1135" d="M981 672 Q944 631 894.5 611.5 Q845 592 786 592 Q725 592 667.5 613 Q610 634 547 666 Q493 693 446 713 Q399 733 348 733 Q312 733 283.5 722 Q255 711 232 693 Q209 675 191 651 Q173 627 158 602 L154 604 L154 811 Q189 851 239 871 Q289 891 348 891 Q410 891 467.5 870 Q525 849 588 817 Q642 789 688.5 769.5 Q735 750 786 750 Q822 750 851 761 Q880 772 902.5 790 Q925 808 943.5 831.5 Q962 855 977 881 L981 879 L981 672 Z " />
<glyph glyph-name="brokenbar" unicode="&#xa6;" horiz-adv-x="655" d="M252 1638 L403 1638 L403 836 L252 836 L252 1638 Z M403 352 L403 -451 L252 -451 L252 352 L403 352 Z " />
<glyph glyph-name="backslash" unicode="&#x5c;" horiz-adv-x="913" d="M37 1561 L188 1561 L877 -78 L725 -78 L37 1561 Z " />
<glyph glyph-name="quotesingle" unicode="&#x27;" horiz-adv-x="383" d="M104 1520 L279 1520 L248 969 L135 969 L104 1520 Z " />
<glyph glyph-name="quotedbl" unicode="&#x22;" horiz-adv-x="721" d="M104 1520 L279 1520 L248 969 L135 969 L104 1520 Z M442 1520 L617 1520 L586 969 L473 969 L442 1520 Z " />
<glyph glyph-name="at" unicode="&#x40;" horiz-adv-x="1663" d="M1028 727 Q993 744 946 758 Q899 772 848 772 Q791 772 745.5 752 Q700 732 666 698 Q622 655 600 596 Q578 537 578 475 Q578 422 593.5 378 Q609 334 637.5 302.5 Q666 271 705 253.5 Q744 236 791 236 Q842 236 897.5 259 Q953 282 1006 332 Q1004 346 1002.5 361 Q1001 376 1001 391 Q1001 410 1002.5 429 Q1004 448 1006 467 L1028 727 Z M1268 -141 Q1172 -200 1061.5 -230 Q951 -260 834 -260 Q724 -260 624.5 -233.5 Q525 -207 439.5 -158 Q354 -109 285.5 -40 Q217 29 168.5 113.5 Q120 198 94 296.5 Q68 395 68 502 Q68 665 126 805 Q184 945 287 1048 Q390 1151 530 1209.5 Q670 1268 834 1268 Q944 1268 1043.5 1241 Q1143 1214 1227.5 1165 Q1312 1116 1380.5 1047.5 Q1449 979 1497 896 Q1545 813 1571 718.5 Q1597 624 1597 522 Q1597 425 1573.5 349 Q1550 273 1507.5 220 Q1465 167 1404.5 139 Q1344 111 1270 111 Q1191 111 1133.5 142 Q1076 173 1042 227 Q1015 202 984 180.5 Q953 159 918 143 Q883 127 844.5 118 Q806 109 766 109 Q697 109 637 134.5 Q577 160 532 206.5 Q487 253 461.5 319.5 Q436 386 436 467 Q436 561 471 647 Q506 733 575 795 Q634 847 707.5 873 Q781 899 858 899 Q911 899 958.5 888 Q1006 877 1053 858 L1180 879 L1145 465 Q1143 449 1142 431 Q1141 413 1141 397 Q1141 316 1178 273.5 Q1215 231 1280 231 Q1319 231 1352.5 247.5 Q1386 264 1411 298.5 Q1436 333 1450 385.5 Q1464 438 1464 510 Q1464 635 1421 749.5 Q1378 864 1297 951.5 Q1216 1039 1099.5 1091 Q983 1143 836 1143 Q737 1143 652 1119.5 Q567 1096 496.5 1054 Q426 1012 371.5 953 Q317 894 279.5 823 Q242 752 222.5 670.5 Q203 589 203 502 Q203 374 246 258.5 Q289 143 370.5 55.5 Q452 -32 569 -83.5 Q686 -135 834 -135 Q968 -135 1077.5 -96 Q1187 -57 1268 0 L1268 -141 Z " />
<glyph glyph-name="copyright" unicode="&#xa9;" horiz-adv-x="1671" d="M68 741 Q68 849 94.5 948 Q121 1047 169.5 1131.5 Q218 1216 287 1285 Q356 1354 441.5 1403 Q527 1452 626.5 1478.5 Q726 1505 836 1505 Q945 1505 1044.5 1478.5 Q1144 1452 1229.5 1403 Q1315 1354 1384 1285 Q1453 1216 1502 1131.5 Q1551 1047 1577.5 948 Q1604 849 1604 741 Q1604 633 1577.5 534.5 Q1551 436 1502 351 Q1453 266 1384 197 Q1315 128 1229.5 79 Q1144 30 1044.5 3.5 Q945 -23 836 -23 Q671 -23 530.5 35.5 Q390 94 287.5 197 Q185 300 126.5 439.5 Q68 579 68 741 Z M201 741 Q201 606 247 489.5 Q293 373 376.5 286.5 Q460 200 577 151 Q694 102 836 102 Q978 102 1094.5 151 Q1211 200 1294.5 286.5 Q1378 373 1424 489.5 Q1470 606 1470 741 Q1470 876 1424 993 Q1378 1110 1294.5 1196 Q1211 1282 1094.5 1331 Q978 1380 836 1380 Q694 1380 577 1331 Q460 1282 376.5 1196 Q293 1110 247 993 Q201 876 201 741 Z M1114 397 Q1063 365 997.5 349.5 Q932 334 870 334 Q775 334 696 365 Q617 396 559.5 451.5 Q502 507 470 583 Q438 659 438 748 Q438 838 470.5 915.5 Q503 993 561 1049 Q619 1105 698.5 1137 Q778 1169 872 1169 Q937 1169 995.5 1153.5 Q1054 1138 1102 1112 L1102 967 Q1054 1001 995 1021.5 Q936 1042 874 1042 Q809 1042 755 1019.5 Q701 997 662 957.5 Q623 918 601.5 864.5 Q580 811 580 750 Q580 688 601.5 635.5 Q623 583 662.5 545 Q702 507 757 485 Q812 463 879 463 Q945 463 1005.5 485 Q1066 507 1114 545 L1114 397 Z " />
<glyph glyph-name="registered" unicode="&#xae;" horiz-adv-x="918" d="M459 743 Q376 743 306 771.5 Q236 800 185 851 Q134 902 105 972 Q76 1042 76 1124 Q76 1206 105 1276 Q134 1346 185 1397 Q236 1448 306 1476.5 Q376 1505 459 1505 Q542 1505 612 1476.5 Q682 1448 733 1397 Q784 1346 813 1276 Q842 1206 842 1124 Q842 1042 813 972 Q784 902 733 851 Q682 800 612 771.5 Q542 743 459 743 Z M459 803 Q529 803 588 827.5 Q647 852 690 894.5 Q733 937 756.5 996 Q780 1055 780 1124 Q780 1193 756.5 1252 Q733 1311 690 1354 Q647 1397 588 1421.5 Q529 1446 459 1446 Q388 1446 329 1421.5 Q270 1397 227 1354 Q184 1311 160.5 1252 Q137 1193 137 1124 Q137 1055 160.5 996 Q184 937 227 894.5 Q270 852 329 827.5 Q388 803 459 803 Z M461 1067 L393 1067 L393 918 L319 918 L319 1331 L467 1331 Q498 1331 526.5 1322.5 Q555 1314 576.5 1297 Q598 1280 610.5 1255 Q623 1230 623 1198 Q623 1152 597 1121.5 Q571 1091 532 1077 L633 918 L549 918 L461 1067 Z M461 1130 Q499 1130 523 1147 Q547 1164 547 1198 Q547 1230 523 1247 Q499 1264 461 1264 L393 1264 L393 1130 L461 1130 Z " />
<glyph glyph-name="trademark" unicode="&#x2122;" horiz-adv-x="1395" d="M242 1370 L49 1370 L49 1483 L561 1483 L561 1370 L369 1370 L369 889 L242 889 L242 1370 Z M657 889 L657 1501 L662 1503 L979 1169 L1294 1503 L1298 1501 L1298 889 L1174 889 L1174 1100 Q1174 1125 1174 1153.5 Q1174 1182 1176 1206 L1171 1208 Q1153 1187 1133.5 1165.5 Q1114 1144 1090 1118 L977 999 L860 1122 Q835 1148 817 1168.5 Q799 1189 780 1210 L776 1208 Q778 1184 778 1155.5 Q778 1127 778 1102 L778 889 L657 889 Z " />
<glyph glyph-name="numbersign" unicode="&#x23;" horiz-adv-x="1266" d="M283 457 L29 457 L63 582 L317 582 L410 901 L156 901 L190 1026 L444 1026 L575 1483 L707 1483 L575 1026 L852 1026 L983 1483 L1114 1483 L983 1026 L1237 1026 L1202 901 L948 901 L856 582 L1110 582 L1075 457 L821 457 L690 0 L559 0 L690 457 L414 457 L283 0 L152 0 L283 457 Z M725 582 L817 901 L541 901 L449 582 L725 582 Z " />
<glyph glyph-name="zero" unicode="0" horiz-adv-x="1266" d="M330 741 Q330 651 334 578.5 Q338 506 347.5 448 Q357 390 373 345.5 Q389 301 412 268 Q449 216 505.5 187 Q562 158 633 158 Q704 158 760.5 187 Q817 216 854 268 Q900 334 918 448 Q936 562 936 741 Q936 831 932 904 Q928 977 918 1034.5 Q908 1092 892.5 1136.5 Q877 1181 854 1214 Q817 1267 760.5 1296 Q704 1325 633 1325 Q562 1325 505.5 1296 Q449 1267 412 1214 Q389 1181 373 1136.5 Q357 1092 347.5 1034.5 Q338 977 334 904 Q330 831 330 741 Z M135 741 Q135 857 143.5 947.5 Q152 1038 167.5 1108 Q183 1178 206.5 1230.5 Q230 1283 260 1325 Q323 1412 418.5 1458.5 Q514 1505 633 1505 Q752 1505 848.5 1458.5 Q945 1412 1008 1325 Q1038 1283 1060.5 1230.5 Q1083 1178 1098.5 1108 Q1114 1038 1122 947.5 Q1130 857 1130 741 Q1130 625 1121.5 535 Q1113 445 1097.5 375 Q1082 305 1059 252 Q1036 199 1006 158 Q943 71 847.5 24 Q752 -23 633 -23 Q514 -23 417.5 24 Q321 71 258 158 Q228 199 205 252 Q182 305 166.5 375 Q151 445 143 535 Q135 625 135 741 Z " />
<glyph glyph-name="one" unicode="1" horiz-adv-x="1042" d="M686 1520 L692 1518 L692 0 L498 0 L498 1206 L158 1010 L158 1212 L686 1520 Z " />
<glyph glyph-name="two" unicode="2" horiz-adv-x="1151" d="M539 592 Q602 667 648.5 730 Q695 793 725.5 849 Q756 905 771 956.5 Q786 1008 786 1061 Q786 1123 766 1172 Q746 1221 709.5 1255 Q673 1289 621.5 1307 Q570 1325 508 1325 Q406 1325 319.5 1280.5 Q233 1236 162 1161 L162 1374 Q230 1436 322.5 1470.5 Q415 1505 520 1505 Q619 1505 703.5 1474.5 Q788 1444 849.5 1387 Q911 1330 946 1249 Q981 1168 981 1067 Q981 992 960.5 922 Q940 852 902 782 Q864 712 810.5 639.5 Q757 567 692 489 L434 180 L436 176 L1034 176 L1034 0 L51 0 L49 4 L539 592 Z " />
<glyph glyph-name="three" unicode="3" horiz-adv-x="1137" d="M145 1483 L991 1483 L993 1479 L575 905 Q687 889 771 847.5 Q855 806 910.5 746 Q966 686 994 610 Q1022 534 1022 449 Q1022 344 984 257.5 Q946 171 878 108.5 Q810 46 717 11.5 Q624 -23 514 -23 Q453 -23 396.5 -13 Q340 -3 289.5 14 Q239 31 195 55 Q151 79 117 106 L117 330 Q208 242 310.5 200 Q413 158 510 158 Q580 158 638 179 Q696 200 738 237.5 Q780 275 803.5 328 Q827 381 827 446 Q827 522 794 580.5 Q761 639 699.5 678.5 Q638 718 550 738 Q462 758 352 758 Q334 758 304 758 Q274 758 252 756 L250 760 L647 1303 L645 1307 L145 1307 L145 1483 Z " />
<glyph glyph-name="four" unicode="4" horiz-adv-x="1309" d="M786 377 L39 377 L37 381 L975 1534 L979 1532 L979 549 L1245 549 L1245 377 L979 377 L979 0 L786 0 L786 377 Z M397 553 L399 549 L786 549 L786 737 Q786 779 786 817 Q786 855 786 891 Q786 927 786.5 963.5 Q787 1000 788 1040 L784 1040 Q763 1013 743 987.5 Q723 962 703.5 937.5 Q684 913 664 887.5 Q644 862 621 834 L397 553 Z " />
<glyph glyph-name="five" unicode="5" horiz-adv-x="1114" d="M389 934 Q514 930 609.5 908.5 Q705 887 775 852.5 Q845 818 891.5 772 Q938 726 966.5 673.5 Q995 621 1006.5 565 Q1018 509 1018 453 Q1018 346 979.5 258.5 Q941 171 872 108.5 Q803 46 708.5 11.5 Q614 -23 502 -23 Q389 -23 291.5 9 Q194 41 125 90 L139 303 Q226 228 319.5 193 Q413 158 504 158 Q574 158 633 178.5 Q692 199 734 236.5 Q776 274 799.5 328 Q823 382 823 449 Q823 527 787.5 587.5 Q752 648 684 689.5 Q616 731 516 752.5 Q416 774 287 774 Q259 774 232 774 Q205 774 182 772 L236 1483 L973 1483 L958 1307 L416 1307 L389 934 Z " />
<glyph glyph-name="six" unicode="6" horiz-adv-x="1227" d="M610 150 Q672 150 728.5 170.5 Q785 191 827.5 229 Q870 267 895 320.5 Q920 374 920 440 Q920 501 897.5 554.5 Q875 608 834.5 647 Q794 686 737.5 708.5 Q681 731 614 731 Q549 731 492.5 710 Q436 689 393 651.5 Q350 614 325.5 562 Q301 510 301 449 Q301 392 323 338 Q345 284 385.5 242.5 Q426 201 483 175.5 Q540 150 610 150 Z M418 817 Q466 855 528 875 Q590 895 662 895 Q756 895 838 861.5 Q920 828 981 768.5 Q1042 709 1077 626.5 Q1112 544 1112 446 Q1112 345 1074 259 Q1036 173 969 110.5 Q902 48 809.5 12.5 Q717 -23 608 -23 Q500 -23 407.5 12 Q315 47 247.5 111.5 Q180 176 142 266 Q104 356 104 467 Q104 519 113.5 570.5 Q123 622 144.5 679 Q166 736 200.5 801.5 Q235 867 285 948 L616 1483 L825 1483 L475 922 Q463 902 447 875 Q431 848 414 819 L418 817 Z " />
<glyph glyph-name="seven" unicode="7" horiz-adv-x="1143" d="M797 1307 L98 1307 L98 1483 L1065 1483 L1067 1479 L449 0 L248 0 L797 1307 Z " />
<glyph glyph-name="eight" unicode="8" horiz-adv-x="1237" d="M860 782 Q921 761 968.5 726 Q1016 691 1049 643.5 Q1082 596 1099 538.5 Q1116 481 1116 416 Q1116 321 1080.5 241 Q1045 161 980 102 Q915 43 823 10 Q731 -23 618 -23 Q505 -23 413.5 10 Q322 43 257 102 Q192 161 156.5 241 Q121 321 121 416 Q121 481 138 538.5 Q155 596 188 643.5 Q221 691 268.5 726 Q316 761 377 782 L377 786 Q272 830 217 908.5 Q162 987 162 1100 Q162 1187 194.5 1261 Q227 1335 287 1389 Q347 1443 431 1474 Q515 1505 618 1505 Q721 1505 805.5 1474 Q890 1443 950 1389 Q1010 1335 1042.5 1261 Q1075 1187 1075 1100 Q1075 987 1020 908.5 Q965 830 860 786 L860 782 Z M618 850 Q674 850 724 868 Q774 886 811 918 Q848 950 869.5 994.5 Q891 1039 891 1092 Q891 1145 870 1189 Q849 1233 812 1265 Q775 1297 725.5 1315 Q676 1333 618 1333 Q561 1333 511 1315 Q461 1297 424.5 1265 Q388 1233 367 1189 Q346 1145 346 1092 Q346 1039 367.5 994.5 Q389 950 426 918 Q463 886 512.5 868 Q562 850 618 850 Z M313 420 Q313 359 337 309.5 Q361 260 402 224.5 Q443 189 499 169.5 Q555 150 618 150 Q682 150 737.5 169.5 Q793 189 834.5 224.5 Q876 260 900 309.5 Q924 359 924 420 Q924 481 900 531.5 Q876 582 834 618 Q792 654 736.5 674 Q681 694 618 694 Q555 694 499.5 674 Q444 654 402.5 618 Q361 582 337 531.5 Q313 481 313 420 Z " />
<glyph glyph-name="nine" unicode="9" horiz-adv-x="1200" d="M592 754 Q662 754 718.5 777 Q775 800 815 839 Q855 878 877 929.5 Q899 981 899 1038 Q899 1095 876.5 1148 Q854 1201 814 1241.5 Q774 1282 717.5 1306.5 Q661 1331 594 1331 Q532 1331 476.5 1310.5 Q421 1290 378 1252 Q335 1214 310 1160 Q285 1106 285 1040 Q285 980 307 928 Q329 876 369.5 837.5 Q410 799 466.5 776.5 Q523 754 592 754 Z M760 647 Q723 622 667.5 605 Q612 588 541 588 Q451 588 369.5 620.5 Q288 653 226.5 712 Q165 771 128.5 853 Q92 935 92 1034 Q92 1136 130.5 1222.5 Q169 1309 237 1372 Q305 1435 398 1470 Q491 1505 600 1505 Q708 1505 799 1470.5 Q890 1436 956 1373.5 Q1022 1311 1059 1223 Q1096 1135 1096 1028 Q1096 963 1082.5 903.5 Q1069 844 1045 786.5 Q1021 729 988.5 671.5 Q956 614 918 553 L571 0 L360 0 L764 643 L760 647 Z " />
</font>
</svg>
